Вы используете незарегистрированную версию компонента "Вкладки"!

Поиск

(Avant-Garde Jazz, Hard Bop, Post-Bop) John Coltrane - Ole Coltrane (2000 Rhino Edition) - 1962, FLAC (image+.cue), lossless

(Avant-Garde Jazz, Hard Bop, Post-Bop) John Coltrane - Ole Coltrane (2000 Rhino Edition) - 1962, FLAC (image+.cue), lossless
Треклист:
John Coltrane - Ole Coltrane (2000 Rhino Edition)
Жанр: Avant-Garde Jazz, Hard Bop, Post-Bop
Год выпуска диска: 1962
Производитель диска: USA
Аудио кодек: FLAC
Тип рипа: image+.cue
Битрейт аудио: lossless
Продолжительность: 45:57
Трэклист:
1. Olé (Coltrane) - 18:19
2. Dahomey Dance (Coltrane) - 10:53
3. Aisha (Tyner) - 7:45
4. Original Untitled Ballad (To Her Ladyship) (*) - 9:00
* Bonus track
Доп. информация:
John Coltrane - Sax (Alto), Sax (Soprano), Sax (Tenor)
Eric Dolphy - Flute, Sax (Alto)
Freddie Hubbard - Trumpet
McCoy Tyner - Piano
Reggie Workman - Bass
Art Davis - Bass
Elvin Jones - Drums
 
Отчёт EAC
Exact Audio Copy V0.99 prebeta 5 from 4. May 2009
Отчёт EAC об извлечении, выполненном 24. июня 2009, 21:05
John Coltrane / Ole (2000 Rhino Edition)
Дисковод: _NEC DVD_RW ND-3520A Adapter: 0 ID: 1
Режим чтения : Достоверность
Использование точного потока : Да
Отключение кэша аудио : Да
Использование указателей C2 : Нет
Коррекция смещения при чтении : 48
Способность читать области Lead-in и Lead-out : Нет
Заполнение пропущенных сэмплов тишиной : Да
Удаление блоков с тишиной в начале и конце : Нет
При вычислениях CRC использовались нулевые сэмплы : Да
Интерфейс : Встроенный Win32-интерфейс для Win NT/2000
Выходной формат : Пользовательский кодировщик
Выбранный битрейт : 768 kBit/s
Качество : Высокий
Добавление ID3-тэга : Нет
Утилита сжатия : C:\Program Files\Exact Audio Copy\FLAC\FLAC.EXE
Дополнительные параметры : -6 -V -T "ARTIST=%a" -T "TITLE=%t" -T "ALBUM=%g" -T "DATE=%y" -T "TRACKNUMBER=%n" -T "GENRE=%m" -T "COMMENT=%e" %s -o %d
TOC извлечённого CD
Трек | Старт | Длительность | Начальный сектор | Конечный сектор
---------------------------------------------------------------------
1 | 0:00.32 | 18:18.45 | 32 | 82426
2 | 18:19.02 | 10:52.53 | 82427 | 131379
3 | 29:11.55 | 7:45.15 | 131380 | 166269
4 | 36:56.70 | 9:00.37 | 166270 | 206806
Характеристики диапазона извлечения и сообщения об ошибках
Выбранный диапазон
Имя файла E:\Downloads\John Coltrane - Ole Coltrane (2000 Rhino Edition) new\John Coltrane - Ole (2000 Rhino Edition).wav
Пиковый уровень 97.2 %
Качество диапазона 99.9 %
CRC теста AE59C129
CRC копии AE59C129
Копирование... OK
Ошибок не произошло
Конец отчёта
Any questions -> support@pro-jazz.com. По всем вопросам пишите -> support@pro-jazz.com
11:42
177
Нет комментариев. Ваш будет первым!