Вы используете незарегистрированную версию компонента "Вкладки"!

Поиск

(Avant-Garde / Modern Creative) Alex Cline - The Lamp And The Star (ECM 1372) - 1989, FLAC (image+.cue), lossless

(Avant-Garde / Modern Creative) Alex Cline - The Lamp And The Star (ECM 1372) - 1989, FLAC (image+.cue), lossless
Треклист:
Alex Cline - The Lamp And The Star (ECM 1372)
Жанр: Avant-Garde / Modern Creative
Год выпуска диска: 1989
Производитель диска: USA
Аудио кодек: FLAC
Тип рипа: image+.cue
Битрейт аудио: lossless
Продолжительность: 50:07
Aina Kemanis voice
Jeff Gauthier violin, viola, voice
Hank Roberts cello, voice
Wayne Peet piano, organ
Eric von Essen bass
Alex Cline percussion, voice
Nels Cline voice
Susan Rawcliffe didjeridu
1. A Blue Robe In The Distance
2. Eminence
3. Emerald Light
4. Altar Stone
5. Accepting The Chalice
Recorded September 1987
 
EAC Report
Exact Audio Copy V0.99 prebeta 4 from 23. January 2008
EAC extraction logfile from 3. June 2009, 13:02
Alex Cline / The Lamp And The Star
Used drive : HL-DT-STDVD-ROM GDR8162B Adapter: 1 ID: 0
Read mode : Secure
Utilize accurate stream : Yes
Defeat audio cache : Yes
Make use of C2 pointers : No
Read offset correction : 102
Overread into Lead-In and Lead-Out : No
Fill up missing offset samples with silence : Yes
Delete leading and trailing silent blocks : No
Null samples used in CRC calculations : Yes
Used interface : Installed external ASPI interface
Used output format : User Defined Encoder
Selected bitrate : 1024 kBit/s
Quality : High
Add ID3 tag : No
Command line compressor : C:\Program Files\Exact Audio Copy\FLAC\FLAC.EXE
Additional command line options : -6 -V -T "ARTIST=%a" -T "TITLE=%t" -T "ALBUM=%g" -T "DATE=%y" -T "TRACKNUMBER=%n" -T "GENRE=%m" -T "COMMENT=%e" %s -o %d
TOC of the extracted CD
Track | Start | Length | Start sector | End sector
---------------------------------------------------------
1 | 0:00.00 | 16:07.12 | 0 | 72536
2 | 16:07.12 | 6:26.43 | 72537 | 101529
3 | 22:33.55 | 7:26.67 | 101530 | 135046
4 | 30:00.47 | 13:00.48 | 135047 | 193594
5 | 43:01.20 | 7:05.67 | 193595 | 225536
Range status and errors
Selected range
Filename C:\eac\Alex Cline - The Lamp And The Star.wav
Peak level 96.3 %
Range quality 100.0 %
Test CRC FA6550CB
Copy CRC FA6550CB
Copy OK
No errors occurred
End of status report
Any questions -> support@pro-jazz.com. По всем вопросам пишите -> support@pro-jazz.com
11:40
173
Нет комментариев. Ваш будет первым!