Вы используете незарегистрированную версию компонента "Вкладки"!

Поиск

(Avant-Garde Jazz, Experimental Big Band) Sun Ra & His Arkestra - Love in outer space - 1998, APE (image+.cue) lossless

Треклист:
Sun Ra & His Arkestra / Love in outer space
Жанр: Avant-Garde Jazz, Experimental Big Band
Страна-производитель диска: UK
Год издания диска: 1998
Издатель (лейбл): Leo Records
Номер по каталогу: LR 154
Аудио кодек: APE (*.ape)
Тип рипа: image+.cue
Битрейт аудио: lossless
Продолжительность: 55:13
Источник (релизер): basa005
Наличие сканов в содержимом раздачи: да
Треклист:
1. along came ra
2. d. 27 (discipline 27)
3. blues ra
4. big john's special
5. fate in a pleasant mood
6. round midnight
7. love in outer space/space is the place
8. fate in a pleasant mood
1983/12/11 concert utrecht, the netherlands
 
Лог создания рипа
Exact Audio Copy V0.99 prebeta 4 from 23. January 2008
EAC extraction logfile from 29. April 2011, 15:41
Sun Ra & His Arkestra / Love in Outer Space
Used drive : ATAPI DVD A DH16A1L Adapter: 1 ID: 0
Read mode : Secure
Utilize accurate stream : Yes
Defeat audio cache : Yes
Make use of C2 pointers : No
Read offset correction : 6
Overread into Lead-In and Lead-Out : No
Fill up missing offset samples with silence : Yes
Delete leading and trailing silent blocks : No
Null samples used in CRC calculations : Yes
Used interface : Native Win32 interface for Win NT & 2000
Used output format : Internal WAV Routines
Sample format : 44.100 Hz; 16 Bit; Stereo
TOC of the extracted CD
Track | Start | Length | Start sector | End sector
---------------------------------------------------------
1 | 0:00.00 | 1:13.60 | 0 | 5534
2 | 1:13.60 | 6:03.32 | 5535 | 32791
3 | 7:17.17 | 4:52.05 | 32792 | 54696
4 | 12:09.22 | 3:18.50 | 54697 | 69596
5 | 15:27.72 | 11:04.45 | 69597 | 119441
6 | 26:32.42 | 8:44.58 | 119442 | 158799
7 | 35:17.25 | 19:59.30 | 158800 | 248754
Range status and errors
Selected range
Filename C:\avaxhome\Sun Ra & His Arkestra - Love in Outer Space.wav
Peak level 70.7 %
Range quality 100.0 %
Copy CRC 32764E6F
Copy OK
No errors occurred
AccurateRip summary
Track 1 cannot be verified as accurate (confidence 1) [DE5F9902], AccurateRip returned [F6785DCD]
Track 2 cannot be verified as accurate (confidence 1) [3DF069C8], AccurateRip returned [7A8F402C]
Track 3 cannot be verified as accurate (confidence 1) [FCB6ECA1], AccurateRip returned [D40E0C1F]
Track 4 cannot be verified as accurate (confidence 1) [4AF9915F], AccurateRip returned [606399B8]
Track 5 cannot be verified as accurate (confidence 1) [5BD52658], AccurateRip returned [8C05328B]
Track 6 cannot be verified as accurate (confidence 1) [28A8423C], AccurateRip returned [CCC9E206]
Track 7 cannot be verified as accurate (confidence 1) [B5E25014], AccurateRip returned [68752DEA]
No tracks could be verified as accurate
You may have a different pressing from the one(s) in the database
End of status report
 
Содержание индексной карты (.CUE)
REM DISCID 5D0CF407
REM COMMENT "ExactAudioCopy v0.99pb4"
PERFORMER "Sun Ra & His Arkestra"
TITLE "Love in Outer Space"
FILE "Sun Ra & His Arkestra - Love in Outer Space.ape" WAVE
TRACK 01 AUDIO
TITLE "Along Came Ra"
PERFORMER "Sun Ra & His Arkestra"
INDEX 01 00:00:00
TRACK 02 AUDIO
TITLE "D.27"
PERFORMER "Sun Ra & His Arkestra"
INDEX 01 01:13:60
TRACK 03 AUDIO
TITLE "Blues Ra"
PERFORMER "Sun Ra & His Arkestra"
INDEX 01 07:17:17
TRACK 04 AUDIO
TITLE "Big John's Special"
PERFORMER "Sun Ra & His Arkestra"
INDEX 00 12:09:20
INDEX 01 12:09:22
TRACK 05 AUDIO
TITLE "Fate in a Pleasant Mood"
PERFORMER "Sun Ra & His Arkestra"
INDEX 01 15:27:72
TRACK 06 AUDIO
TITLE "Round Midnight"
PERFORMER "Sun Ra & His Arkestra"
INDEX 00 26:29:45
INDEX 01 26:32:42
TRACK 07 AUDIO
TITLE "Love in Outer Space / Space is the Place"
PERFORMER "Sun Ra & His Arkestra"
INDEX 00 35:17:24
INDEX 01 35:17:25
 
Об альбоме (сборнике)
"Your destiny is in the hand of fate.
All you got to do to change your destiny.
Find fate when fate is in a pleasant mood."
Subtitled "Live In Utrecht", this recording will take you back to December 1983, to the fabulous Sun Ra & his Arkestra concert in Utrecht, NL.
"Love In Outer Space" presents about 55 minutes of the concert. And it sounds like it was a lot of fun. The choice of tunes is excellent and the solos are great. You get some of the bluesiest Sun Ra piano solos, some squeeking sax solos by John Gilmore, a superb percussion solo in between the last tracks, all backed by a swinging Arkestra.
 
Состав
sun ra: piano, keyboards, vocals
michael ray: trumpet
ronnie brown: trumpet, flugelhorn, percussion
tyrone hill: trombone
marshall allen: alto sax, flute
john gilmore: tenor sax, clarinet, vocals
eloe omoe: alto sax, bass clarinet, contra-alto clarinet
james jacson: bassoon, flute, ancient egyptian infinity drum
thompson: bassoon, flute
poss. wilbur little: bass
poss. don mumford: drums, percussion
poss. matthew brown: conga
june tyson: vocals
produced by leo feigin
По всем вопросам пишите личное сообщение пользователю M0p94ok.
11:33
260
Нет комментариев. Ваш будет первым!