Вы используете незарегистрированную версию компонента "Вкладки"!

Поиск

(Free Jazz / Modern Free) Burkhard Beins, Martin Pfleiderer & Peter Niklas Wilson - Yarbles {Hat Hut hatOLOGY 510} - 1997, FLAC (tracks+.cue) lossless

(Free Jazz / Modern Free) Burkhard Beins, Martin Pfleiderer & Peter Niklas Wilson - Yarbles {Hat Hut hatOLOGY 510} - 1997, FLAC (tracks+.cue) lossless
Треклист:
Burkhard Beins, Martin Pfleiderer & Peter Niklas Wilson - Yarbles
Жанр: Free Jazz / Modern Free
Страна-производитель диска: Switzerland
Год издания диска: 1997
Издатель (лейбл): Hat Hut Records
Номер по каталогу: hatOLOGY 510
Аудио кодек: FLAC (*.flac)
Тип рипа: tracks+.cue
Битрейт аудио: lossless
Продолжительность: 00:51:37
Источник (релизер): mishka1981
Наличие сканов в содержимом раздачи: да
Треклист:
1. Smoothpick (02.22)
2. Upperturnity (07.37)
3. Wringlings upon wronglings (05.37)
4. Vividence (07.11)
5. Painapples (06.28)
6. Sickfish bellyup (08.42)
7. Yarbles (01.42)
8. Nomanclatter (07.02)
9. Phoenish (04.56)
Personnel:
Burkhard Beins (d, perc)
Martin Pfleiderer (ss, ts)
Peter Niklas Wilson (b)
 
Лог создания рипа (EAC Log)
Exact Audio Copy V1.0 beta 1 from 15. November 2010
EAC extraction logfile from 2. May 2011, 15:19
Burkhard Beins, Martin Pfleiderer & Peter Niklas Wilson / Yarbles
Used drive : TSSTcorpCDDVDW TS-L633A Adapter: 3 ID: 0
Read mode : Secure
Utilize accurate stream : Yes
Defeat audio cache : Yes
Make use of C2 pointers : No
Read offset correction : 6
Overread into Lead-In and Lead-Out : No
Fill up missing offset samples with silence : Yes
Delete leading and trailing silent blocks : No
Null samples used in CRC calculations : Yes
Used interface : Installed external ASPI interface
Gap handling : Appended to previous track
Used output format : User Defined Encoder
Selected bitrate : 896 kBit/s
Quality : High
Add ID3 tag : No
Command line compressor : C:\Program Files\Exact Audio Copy\FLAC\FLAC.EXE
Additional command line options : -8 -V -T "ARTIST=%a" -T "TITLE=%t" -T "ALBUM=%g" -T "DATE=%y" -T "TRACKNUMBER=%n" -T "TOTALTRACKS=%x" -T "GENRE=%m" -T "ALBUMARTIST=%v" -T "ALBUM ARTIST=%v" -T "COMMENT=EAC Secure Mode, Test & Copy, AccurateRip, FLAC -8" %s
TOC of the extracted CD
Track | Start | Length | Start sector | End sector
---------------------------------------------------------
1 | 0:00.00 | 2:22.62 | 0 | 10711
2 | 2:22.62 | 7:37.00 | 10712 | 44986
3 | 9:59.62 | 5:37.00 | 44987 | 70261
4 | 15:36.62 | 7:11.00 | 70262 | 102586
5 | 22:47.62 | 6:28.00 | 102587 | 131686
6 | 29:15.62 | 8:42.00 | 131687 | 170836
7 | 37:57.62 | 1:42.00 | 170837 | 178486
8 | 39:39.62 | 7:02.00 | 178487 | 210136
9 | 46:41.62 | 4:56.13 | 210137 | 232349
Track 1
Filename C:\MY RIPS\01 - Smoothpick.wav
Pre-gap length 0:00:02.00
Peak level 54.8 %
Extraction speed 0.9 X
Track quality 100.0 %
Test CRC BA07BC10
Copy CRC BA07BC10
Accurately ripped (confidence 1) [FAA0CC3C]
Copy OK
Track 2
Filename C:\MY RIPS\02 - Upperturnity.wav
Peak level 91.8 %
Extraction speed 1.3 X
Track quality 100.0 %
Test CRC 05F74AAD
Copy CRC 05F74AAD
Accurately ripped (confidence 1) [36AE4AA0]
Copy OK
Track 3
Filename C:\MY RIPS\03 - Wringlings Upon Wronglings.wav
Peak level 58.5 %
Extraction speed 1.4 X
Track quality 100.0 %
Test CRC 8E0FD95E
Copy CRC 8E0FD95E
Accurately ripped (confidence 1) [F538FC9E]
Copy OK
Track 4
Filename C:\MY RIPS\04 - Vividence.wav
Peak level 91.8 %
Extraction speed 1.4 X
Track quality 99.9 %
Test CRC B09D4146
Copy CRC B09D4146
Accurately ripped (confidence 1) [7D050F99]
Copy OK
Track 5
Filename C:\MY RIPS\05 - Painapples.wav
Peak level 91.7 %
Extraction speed 1.7 X
Track quality 100.0 %
Test CRC E30CA7D5
Copy CRC E30CA7D5
Accurately ripped (confidence 1) [B4ED05D4]
Copy OK
Track 6
Filename C:\MY RIPS\06 - Sickfish Bellyup.wav
Peak level 91.7 %
Extraction speed 1.6 X
Track quality 99.9 %
Test CRC 03EB386F
Copy CRC 03EB386F
Accurately ripped (confidence 1) [7CD571B8]
Copy OK
Track 7
Filename C:\MY RIPS\07 - Yarbles.wav
Peak level 57.3 %
Extraction speed 1.5 X
Track quality 100.0 %
Test CRC 5F3C336F
Copy CRC 5F3C336F
Accurately ripped (confidence 1) [2A1F0A0C]
Copy OK
Track 8
Filename C:\MY RIPS\08 - Nomanclatter.wav
Peak level 91.4 %
Extraction speed 2.0 X
Track quality 100.0 %
Test CRC 13D1C0EF
Copy CRC 13D1C0EF
Accurately ripped (confidence 1) [4483D4BC]
Copy OK
Track 9
Filename C:\MY RIPS\09 - Phoenish.wav
Peak level 25.0 %
Extraction speed 2.1 X
Track quality 100.0 %
Test CRC FEF2360A
Copy CRC FEF2360A
Accurately ripped (confidence 1) [5CF9C472]
Copy OK
All tracks accurately ripped
No errors occurred
End of status report
==== Log checksum 18E2EEC187B51D0EE60FBDFB19610F8E69702D97C7A347D66D6376921C5A7D2D ====
 
Содержание индексной карты (.CUE)
REM GENRE Jazz
REM DATE 1997
REM DISCID 7C0C1A09
REM COMMENT "ExactAudioCopy v1.0b1"
PERFORMER "Burkhard Beins, Martin Pfleiderer & Peter Niklas Wilson"
TITLE "Yarbles"
FILE "01 - Smoothpick.wav" WAVE
TRACK 01 AUDIO
TITLE "Smoothpick"
PERFORMER "Burkhard Beins, Martin Pfleiderer & Peter Niklas Wilson"
INDEX 01 00:00:00
FILE "02 - Upperturnity.wav" WAVE
TRACK 02 AUDIO
TITLE "Upperturnity"
PERFORMER "Burkhard Beins, Martin Pfleiderer & Peter Niklas Wilson"
INDEX 01 00:00:00
FILE "03 - Wringlings Upon Wronglings.wav" WAVE
TRACK 03 AUDIO
TITLE "Wringlings Upon Wronglings"
PERFORMER "Burkhard Beins, Martin Pfleiderer & Peter Niklas Wilson"
INDEX 01 00:00:00
FILE "04 - Vividence.wav" WAVE
TRACK 04 AUDIO
TITLE "Vividence"
PERFORMER "Burkhard Beins, Martin Pfleiderer & Peter Niklas Wilson"
INDEX 01 00:00:00
FILE "05 - Painapples.wav" WAVE
TRACK 05 AUDIO
TITLE "Painapples"
PERFORMER "Burkhard Beins, Martin Pfleiderer & Peter Niklas Wilson"
INDEX 01 00:00:00
FILE "06 - Sickfish Bellyup.wav" WAVE
TRACK 06 AUDIO
TITLE "Sickfish Bellyup"
PERFORMER "Burkhard Beins, Martin Pfleiderer & Peter Niklas Wilson"
INDEX 01 00:00:00
FILE "07 - Yarbles.wav" WAVE
TRACK 07 AUDIO
TITLE "Yarbles"
PERFORMER "Burkhard Beins, Martin Pfleiderer & Peter Niklas Wilson"
INDEX 01 00:00:00
FILE "08 - Nomanclatter.wav" WAVE
TRACK 08 AUDIO
TITLE "Nomanclatter"
PERFORMER "Burkhard Beins, Martin Pfleiderer & Peter Niklas Wilson"
INDEX 01 00:00:00
FILE "09 - Phoenish.wav" WAVE
TRACK 09 AUDIO
TITLE "Phoenish"
PERFORMER "Burkhard Beins, Martin Pfleiderer & Peter Niklas Wilson"
INDEX 01 00:00:00
По всем вопросам пишите личное сообщение пользователю M0p94ok.
11:32
227
Нет комментариев. Ваш будет первым!