Вы используете незарегистрированную версию компонента "Вкладки"!

Поиск

(Avant-garde/Free Improvisation) Ned Rothenberg, Catherine Jauniaux, Barre Phillips - While You Were Out - 2008, WavPack (iso.wv) lossless

Треклист:
Ned Rothenberg, Catherine Jauniaux, Barre Phillips / While You Were Out
Жанр: Avantgarde/Free Improvisation
Страна-производитель диска: Italy
Год издания диска: 2008
Издатель (лейбл): Kadima Collective Recording
Номер по каталогу: KCR 23
Страна: USA
Аудио кодек: WavPack (*.wv)
Тип рипа: iso.wv
Битрейт аудио: lossless
Продолжительность: 59:40
Источник (релизер): tatuk
Наличие сканов в содержимом раздачи: да
Треклист:
1. First Things Fisrst 8:18
2. Oh My 13:44
3. Flashing Terncat 5:46
4. As Soon As 7:01
5. Whisper 6:15
6. Eyelet 6:16
7. While You Were Out 7:08
8. La Vida Es Sueno 5:46
 
Лог создания рипа
Exact Audio Copy V1.0 beta 1 from 15. November 2010
EAC extraction logfile from 3. May 2011, 22:20
Rothenberg Jauniaux Phillips / While You Were Out
Used drive : SONY DVD RW DRU-830A Adapter: 1 ID: 0
Read mode : Secure
Utilize accurate stream : Yes
Defeat audio cache : Yes
Make use of C2 pointers : No
Read offset correction : 6
Overread into Lead-In and Lead-Out : No
Fill up missing offset samples with silence : Yes
Delete leading and trailing silent blocks : No
Null samples used in CRC calculations : Yes
Used interface : Native Win32 interface for Win NT & 2000
Used output format : User Defined Encoder
Selected bitrate : 128 kBit/s
Quality : High
Add ID3 tag : No
Command line compressor : C:\Program Files (x86)\Exact Audio Copy\wavpack\wavpack.exe
Additional command line options : -hlm %s
TOC of the extracted CD
Track | Start | Length | Start sector | End sector
---------------------------------------------------------
1 | 0:00.00 | 8:18.34 | 0 | 37383
2 | 8:18.34 | 13:44.68 | 37384 | 99251
3 | 22:03.27 | 5:46.10 | 99252 | 125211
4 | 27:49.37 | 7:01.52 | 125212 | 156838
5 | 34:51.14 | 6:15.59 | 156839 | 185022
6 | 41:06.73 | 6:16.56 | 185023 | 213278
7 | 47:23.54 | 7:08.73 | 213279 | 245451
8 | 54:32.52 | 5:46.21 | 245452 | 271422
Range status and errors
Selected range
Filename D:\_NL+_\flac\Rothenberg Jauniaux Phillips - While You Were Out.wav
Peak level 99.8 %
Extraction speed 0.7 X
Range quality 100.0 %
Copy CRC B9932C97
Copy OK
No errors occurred
AccurateRip summary
Track 1 not present in database
Track 2 not present in database
Track 3 not present in database
Track 4 not present in database
Track 5 not present in database
Track 6 not present in database
Track 7 not present in database
Track 8 not present in database
None of the tracks are present in the AccurateRip database
End of status report
==== Log checksum 92EBB40E7F8BC0C16071A24DFDB3C928D19CBDEA76FD6DFBDCF9AE72FF28E921 ====
 
Содержание индексной карты (.CUE)
REM GENRE "Avantgarde"
REM DATE 2008
REM DISCID 660E2208
REM COMMENT "ExactAudioCopy v1.0b1"
PERFORMER "Rothenberg Jauniaux Phillips"
TITLE "While You Were Out"
FILE "Rothenberg Jauniaux Phillips - While You Were Out 2008.wv" WAVE
TRACK 01 AUDIO
TITLE "First Things First"
PERFORMER "Rothenberg Jauniaux Phillips"
INDEX 01 00:00:00
TRACK 02 AUDIO
TITLE "Oh My!"
PERFORMER "Rothenberg Jauniaux Phillips"
INDEX 01 08:18:34
TRACK 03 AUDIO
TITLE "Flashing Terncat"
PERFORMER "Rothenberg Jauniaux Phillips"
INDEX 01 22:03:27
TRACK 04 AUDIO
TITLE "As Soon As"
PERFORMER "Rothenberg Jauniaux Phillips"
INDEX 01 27:49:37
TRACK 05 AUDIO
TITLE "Whisper"
PERFORMER "Rothenberg Jauniaux Phillips"
INDEX 01 34:51:14
TRACK 06 AUDIO
TITLE "Eyelet"
PERFORMER "Rothenberg Jauniaux Phillips"
INDEX 01 41:06:73
TRACK 07 AUDIO
TITLE "While You Were Out"
PERFORMER "Rothenberg Jauniaux Phillips"
INDEX 01 47:23:54
TRACK 08 AUDIO
TITLE "La Vida Es Sueno"
PERFORMER "Rothenberg Jauniaux Phillips"
INDEX 01 54:32:52
 
Лог проверки качества
-----------------------
DON'T MODIFY THIS FILE
-----------------------
PERFORMER: auCDtect Task Manager, ver. 1.5.1RC3 build 1.5.1.4
Copyright (c) 2008-2010 y-soft. All rights reserved
http://y-soft.org
ANALYZER: auCDtect: CD records authenticity detector, version 0.8.2
Copyright (c) 2004 Oleg Berngardt. All rights reserved.
Copyright (c) 2004 Alexander Djourik. All rights reserved.
FILE: Rothenberg Jauniaux Phillips - While You Were Out.wav
Size: 638386940 Hash: B1DA4EAF69AAE0ECD60BE683F610E0CB Accuracy: -m0
Conclusion: CDDA 100%
Signature: A18F7DB349AC7B319F88BCF88055437CC6F929B2
 
Скриншот спектра частот
 
Содержимое контейнера
front.jpg
disk.jpg
Rothenberg Jauniaux Phillips - While You Were Out 2009.log
Rothenberg Jauniaux Phillips - While You Were Out 2009.wv
Rothenberg Jauniaux Phillips - While You Were Out 2009.wv.cue
back.jpg
Kadima Collective Recording KCR 23.sig
checkers\matrix.jpg
checkers\Rothenberg Jauniaux Phillips - While You Were Out 2009.accurip
checkers\Rothenberg Jauniaux Phillips - While You Were Out.wav.auCDtect.txt
checkers\spectral.jpg
checkers\wave.jpg
checkers\EAC.jpg
misc\info.txt
readme\[RUS] README No unpacking needed to play or burn this release.txt
readme\[ENG] README No unpacking needed to play or burn this release.txt
scans\disk.png
scans\front.png
scans\inside1.png
scans\inside2.png
scans\back.png
Доп. информация: Известная всем добрякам бельгийская бельгийка Катерина Жано продолжает победно шествовать по авант-проговым шарам рутрекера.
В раздаче - очередная жемчужина импровизации, где, кроме известного контрабасиста Барри Филлипса, к Катерине присоединился духовик Нед Ротенберг, который окромя банальных саксофонов/кларнетов играет на некоем загадочном инструменте под названием "шакухачи".
Записано 22 ноября 2008 года на фестивале во Франции.
Сведено Недом Ротенбергом, разумеется, в Бруклине.
Рекомендую всем, кто любит свободный импровайз бельгийских бельгийцев.
 
Об альбоме (сборнике)
A fantastic trio of multi-reed and shakuhachi player Ned Rothenberg, avant vocalist Catherine Jauniaux, and bassist Barre Phillips recorded live in France, 2008.
 
Состав
Ned Rothenberg - clarinet, bass clarinet, shakuhachi, alto saxophone
Catherine Jauniaux - voice
Barre Phillips - double bass
Другие альбомы с участием Катeрины Жано:
(Avant-garde/RIO) The Hat Shoes - Home 2002
(Avantgarde/RIO/Avant-pop) The Hat Shoes - Differently Desperate 1991 (от добряка hiroszima)
(Avant-prog/Art-rock) Catherine Jauniaux with Tim Hodgkinson - Fluvial 2005
(Avantgarde/Improvisation) Phillips Jauniaux Goldstein - Birds Abide 2010
-------------------------------
Что такое iso.wv? Инструкция по эксплуатации
По всем вопросам пишите личное сообщение пользователю M0p94ok.
11:34
232
Нет комментариев. Ваш будет первым!