Вы используете незарегистрированную версию компонента "Вкладки"!

Поиск

(Avant-Garde Jazz) Craig Harris & the Nation of Imagination - Istanbul - 1998, FLAC (tracks+.cue), lossless

(Avant-Garde Jazz) Craig Harris & the Nation of Imagination - Istanbul - 1998, FLAC (tracks+.cue), lossless
Треклист:
Craig Harris & the Nation of Imagination - Istanbul
Жанр: Avant-Garde Jazz
Страна-производитель диска: Турция
Год издания: 1998
Издатель (лейбл): Doublemoon
Номер по каталогу: DM0001 (8695618000072)
Страна: США, Турция
Аудиокодек: FLAC (*.flac)
Тип рипа: tracks+.cue
Битрейт аудио: lossless
Продолжительность: 69:43
Источник (релизер): apeironur (what)
Наличие сканов в содержимом раздачи: да
Треклист:
01. Camlica (0:59)
02. Mandela (5:30)
03. Dijiribludu (8:46)
04. Big Body Girl (5:16)
05. Harlem (6:42)
06. Cab (4:38)
07. Zoupy (3:28)
08. Love (11:35)
09. Mandira (4:20)
10. Dreamtime (8:27)
11. Song for a Friend (5:17)
12. Pozitif (4:45)
 
Лог создания рипа
Exact Audio Copy V1.0 beta 3 from 29. August 2011
EAC extraction logfile from 8. April 2013, 21:12
Craig Harris & the Nation of Imagination / Istanbul
Used drive : hp DVD A DH16ABSH Adapter: 0 ID: 1
Read mode : Secure
Utilize accurate stream : Yes
Defeat audio cache : Yes
Make use of C2 pointers : No
Read offset correction : 6
Overread into Lead-In and Lead-Out : No
Fill up missing offset samples with silence : Yes
Delete leading and trailing silent blocks : No
Null samples used in CRC calculations : Yes
Used interface : Native Win32 interface for Win NT & 2000
Gap handling : Appended to previous track
Used output format : User Defined Encoder
Selected bitrate : 1024 kBit/s
Quality : High
Add ID3 tag : No
Command line compressor : C:\Program Files (x86)\Exact Audio Copy\Flac\flac.exe
Additional command line options : -8 -V -T "ARTIST=%artist%" -T "TITLE=%title%" -T "ALBUM=%albumtitle%" -T "DATE=%year%" -T "TRACKNUMBER=%tracknr%" -T "GENRE=%genre%" -T "PERFORMER=%albuminterpret%" -T "COMPOSER=%composer%" %haslyrics%--tag-from-file=LYRICS="%lyricsfile%"%haslyrics% -T "ALBUMARTIST=%albumartist%" -T "DISCNUMBER=%cdnumber%" -T "TOTALDISCS=%totalcds%" -T "TOTALTRACKS=%numtracks%" -T "COMMENT=%comment%" %source% -o %dest%
TOC of the extracted CD
Track | Start | Length | Start sector | End sector
---------------------------------------------------------
1 | 0:00.00 | 0:58.52 | 0 | 4401
2 | 0:58.52 | 5:29.58 | 4402 | 29134
3 | 6:28.35 | 8:45.45 | 29135 | 68554
4 | 15:14.05 | 5:15.70 | 68555 | 92249
5 | 20:30.00 | 6:42.05 | 92250 | 122404
6 | 27:12.05 | 4:37.40 | 122405 | 143219
7 | 31:49.45 | 3:28.35 | 143220 | 158854
8 | 35:18.05 | 11:34.70 | 158855 | 210974
9 | 46:53.00 | 4:19.72 | 210975 | 230471
10 | 51:12.72 | 8:27.15 | 230472 | 268511
11 | 59:40.12 | 5:17.30 | 268512 | 292316
12 | 64:57.42 | 4:45.20 | 292317 | 313711
Track 1
Filename C:\Users\Onur\Desktop\Eac Rips\01 - Çamlica.wav
Pre-gap length 0:00:02.00
Peak level 99.9 %
Extraction speed 2.5 X
Track quality 100.0 %
Test CRC 7A30E7A9
Copy CRC 7A30E7A9
Track not present in AccurateRip database
Copy OK
Track 2
Filename C:\Users\Onur\Desktop\Eac Rips\02 - Mandela.wav
Pre-gap length 0:00:02.62
Peak level 96.5 %
Extraction speed 4.1 X
Track quality 100.0 %
Test CRC 6F9D8ABC
Copy CRC 6F9D8ABC
Track not present in AccurateRip database
Copy OK
Track 3
Filename C:\Users\Onur\Desktop\Eac Rips\03 - Dijiribludu.wav
Pre-gap length 0:00:01.97
Peak level 95.7 %
Extraction speed 4.9 X
Track quality 100.0 %
Test CRC C731A472
Copy CRC C731A472
Track not present in AccurateRip database
Copy OK
Track 4
Filename C:\Users\Onur\Desktop\Eac Rips\04 - Big Body Girl.wav
Pre-gap length 0:00:02.60
Peak level 100.0 %
Extraction speed 5.2 X
Track quality 100.0 %
Test CRC 459042BE
Copy CRC 459042BE
Track not present in AccurateRip database
Copy OK
Track 5
Filename C:\Users\Onur\Desktop\Eac Rips\05 - Harlem.wav
Pre-gap length 0:00:02.70
Peak level 98.6 %
Extraction speed 5.0 X
Track quality 99.9 %
Test CRC 404250CE
Copy CRC 404250CE
Track not present in AccurateRip database
Copy OK
Track 6
Filename C:\Users\Onur\Desktop\Eac Rips\06 - Cab.wav
Pre-gap length 0:00:02.37
Peak level 98.7 %
Extraction speed 4.8 X
Track quality 99.9 %
Test CRC F29CDE14
Copy CRC F29CDE14
Track not present in AccurateRip database
Copy OK
Track 7
Filename C:\Users\Onur\Desktop\Eac Rips\07 - Zoupy.wav
Pre-gap length 0:00:01.70
Peak level 91.4 %
Extraction speed 4.5 X
Track quality 99.9 %
Test CRC 44D222BF
Copy CRC 44D222BF
Track not present in AccurateRip database
Copy OK
Track 8
Filename C:\Users\Onur\Desktop\Eac Rips\08 - Love.wav
Pre-gap length 0:00:02.20
Peak level 100.0 %
Extraction speed 7.0 X
Track quality 100.0 %
Test CRC B0BFAC06
Copy CRC B0BFAC06
Track not present in AccurateRip database
Copy OK
Track 9
Filename C:\Users\Onur\Desktop\Eac Rips\09 - Mandira.wav
Pre-gap length 0:00:01.66
Peak level 94.5 %
Extraction speed 5.4 X
Track quality 99.9 %
Test CRC DEB65141
Copy CRC DEB65141
Track not present in AccurateRip database
Copy OK
Track 10
Filename C:\Users\Onur\Desktop\Eac Rips\10 - Dreamtime.wav
Pre-gap length 0:00:01.73
Peak level 99.6 %
Extraction speed 7.5 X
Track quality 100.0 %
Test CRC C47B95C6
Copy CRC C47B95C6
Track not present in AccurateRip database
Copy OK
Track 11
Filename C:\Users\Onur\Desktop\Eac Rips\11 - Song for a Friend.wav
Pre-gap length 0:00:01.13
Peak level 90.2 %
Extraction speed 6.8 X
Track quality 99.9 %
Test CRC 80527F48
Copy CRC 80527F48
Track not present in AccurateRip database
Copy OK
Track 12
Filename C:\Users\Onur\Desktop\Eac Rips\12 - Pozitif.wav
Pre-gap length 0:00:01.00
Peak level 97.3 %
Extraction speed 6.6 X
Track quality 100.0 %
Test CRC 07B179D6
Copy CRC 07B179D6
Track not present in AccurateRip database
Copy OK
None of the tracks are present in the AccurateRip database
No errors occurred
End of status report
---- CUETools DB Plugin V2.1.3
[CTDB TOCID: _0uleM4h_CzsQ_z3d.yG6U_kcjw-] disk not present in database, Submit result: _0uleM4h_CzsQ_z3d.yG6U_kcjw- has been uploaded
==== Log checksum F3BA0C75CE467E5B355F96500CE8B19701E93073C1B5BB6EBF92605B51F3EC33 ====
 
Содержание индексной карты (.CUE)
REM GENRE Jazz
REM DATE 1998
REM DISCID 9810560C
REM COMMENT "ExactAudioCopy v1.0b3"
PERFORMER "Craig Harris & the Nation of Imagination"
TITLE "Istanbul"
FILE "01 - Camlica.wav" WAVE
TRACK 01 AUDIO
TITLE "Camlica"
PERFORMER "Craig Harris & the Nation of Imagination"
INDEX 01 00:00:00
TRACK 02 AUDIO
TITLE "Mandela"
PERFORMER "Craig Harris & the Nation of Imagination"
INDEX 00 00:56:05
FILE "02 - Mandela.wav" WAVE
INDEX 01 00:00:00
TRACK 03 AUDIO
TITLE "Dijiribludu"
PERFORMER "Craig Harris & the Nation of Imagination"
INDEX 00 05:27:60
FILE "03 - Dijiribludu.wav" WAVE
INDEX 01 00:00:00
TRACK 04 AUDIO
TITLE "Big Body Girl"
PERFORMER "Craig Harris & the Nation of Imagination"
INDEX 00 08:43:00
FILE "04 - Big Body Girl.wav" WAVE
INDEX 01 00:00:00
TRACK 05 AUDIO
TITLE "Harlem"
PERFORMER "Craig Harris & the Nation of Imagination"
INDEX 00 05:13:17
FILE "05 - Harlem.wav" WAVE
INDEX 01 00:00:00
TRACK 06 AUDIO
TITLE "Cab"
PERFORMER "Craig Harris & the Nation of Imagination"
INDEX 00 06:39:52
FILE "06 - Cab.wav" WAVE
INDEX 01 00:00:00
TRACK 07 AUDIO
TITLE "Zoupy"
PERFORMER "Craig Harris & the Nation of Imagination"
INDEX 00 04:35:62
FILE "07 - Zoupy.wav" WAVE
INDEX 01 00:00:00
TRACK 08 AUDIO
TITLE "Love"
PERFORMER "Craig Harris & the Nation of Imagination"
INDEX 00 03:26:20
FILE "08 - Love.wav" WAVE
INDEX 01 00:00:00
TRACK 09 AUDIO
TITLE "Mandira"
PERFORMER "Craig Harris & the Nation of Imagination"
INDEX 00 11:33:20
FILE "09 - Mandira.wav" WAVE
INDEX 01 00:00:00
TRACK 10 AUDIO
TITLE "Dreamtime"
PERFORMER "Craig Harris & the Nation of Imagination"
INDEX 00 04:18:17
FILE "10 - Dreamtime.wav" WAVE
INDEX 01 00:00:00
TRACK 11 AUDIO
TITLE "Song for a Friend"
PERFORMER "Craig Harris & the Nation of Imagination"
INDEX 00 08:26:05
FILE "11 - Song for a Friend.wav" WAVE
INDEX 01 00:00:00
TRACK 12 AUDIO
TITLE "Pozitif"
PERFORMER "Craig Harris & the Nation of Imagination"
INDEX 00 05:16:30
FILE "12 - Pozitif.wav" WAVE
INDEX 01 00:00:00
 
Об альбоме (сборнике)
The latest project by the trombone master Craig Harris brings together a fine selection of American jazz players with the master musicians of Turkey. This is a group that plays world music with a stong emphasis on jazz and its derivatives.
Craig Harris has been called "one of the most complete trombonist in music today, and without question one of the finest younger composers." Innovation and artistic experimentation are his trademarks. His creative success springs from a disciplined background that includes study with contemporary greats such as Sun Ra, Abdullah Ibrahim, David Murray and Charlie Haden. Craig has wisely assembled a core band of musical free-thinkers, players like Al McDowell, Kelvyn Bell and Tony Lewis, who have spent their careers scoffing at musical boundaries.
The clarinet virtuoso Barbaros Erk belongs to the family group the Erk Brothers. Their unique repertory of gypsy music, which includes not only the musical traditions of Turkey but also the Balkans, the Near East and Azerbeidjan, has brought them international fame. Barbaros Erk is also pursuing his own solo career and touring the world for multi-cultural projects.
Nation of Imagination travels over so much musical terrain that it's almost mind-blowing. Calling it "jazz" makes sense, of course, but by the time this tour is over we've heard gypsy music, soul, rap, reggae, folk music, you name it. You've never heard anything like this before, and that statement in 1998 is so rare that it would be worth something even if the music herein wasn't so damned good.
-- Courtesy Calabash Music
 
Состав
Craig Harris - trombone, didgeridoo, vocals
Barbaros Erkose - clarinet
Al McDowell - bass
Ali Gorgulu - darbuka
Ali Perret - keyboards
Bill White - guitar
Calvin Jones - bass
Carla Cook - vocals
Damon Duewhite - drums
Kelvyn Bell - guitar
Mehmet Erdem - oud
Oguz Buyukberber - bass clarinet
Serdar Ucar - kanun
Tony Lewis - drums
Saban Erkose - darbuka
Recorded at Imaj Studios, Istanbul on October 21-22, 1997 and Iiwi Studios, New Jersey on December 12, 1997.
Any questions -> support@pro-jazz.com. По всем вопросам пишите -> support@pro-jazz.com
10:56
207
Нет комментариев. Ваш будет первым!