Вы используете незарегистрированную версию компонента "Вкладки"!

Поиск

(Avant-Garde Jazz, Post-Bop) Sam Rivers & The Rivbea Orchestra - Trilogy (2008-2009) - 2011 (3CD Mosaic Select 38), FLAC (tracks+.cue), lossless

(Avant-Garde Jazz, Post-Bop) Sam Rivers & The Rivbea Orchestra - Trilogy (2008-2009) - 2011 (3CD Mosaic Select 38), FLAC (tracks+.cue), lossless
Треклист:
Sam Rivers & The Rivbea Orchestra - Trilogy
Жанр: Avant-Garde Jazz, Post-Bop
Страна-производитель диска: США
Год издания: 2011
Издатель (лейбл): Mosaic Records
Номер по каталогу: MS-038
Аудиокодек: FLAC (*.flac)
Тип рипа: tracks+.cue
Битрейт аудио: lossless
Продолжительность: CD1 - 65:50; CD2 - 54:14; CD3 - 71:51
Источник (релизер): mimolizer (what)
Наличие сканов в содержимом раздачи: да
 
Треклист
CD1 - Offering:
01. Spice (8:52)
02. Ganymede (9:05)
03. Crux (8:13)
04. Aura (15:48)
05. Perkin (9:39)
06. Pulsar (14:13)
CD2 - Progeny:
01. Robyn (6:21)
02. Cindy (5:47)
03. Monique (6:45)
04. Traci (5:10)
05. Iisha (4:43)
06. Tamara (5:21)
07. Tiffany (5:41)
08. Jessica (7:32)
09. Destiny (6:54)
CD3 - Edge:
01. Ridge (10:28)
02. Brink (11:05)
03. Precipice (9:29)
04. Verge (10:32)
05. Point (10:13)
06. Visions (11:39)
07. Pulsar (8:25)
 
Техническая информация
 
Лог создания рипа CD1
Exact Audio Copy V1.0 beta 3 from 29. August 2011
EAC extraction logfile from 10. April 2013, 22:36
Sam Rivers & Rivbea Orchestra / Trilogy, Disc 1: Offering
Used drive : hp BDDVDRW CT21L Adapter: 0 ID: 1
Read mode : Secure
Utilize accurate stream : Yes
Defeat audio cache : Yes
Make use of C2 pointers : No
Read offset correction : 102
Overread into Lead-In and Lead-Out : No
Fill up missing offset samples with silence : Yes
Delete leading and trailing silent blocks : No
Null samples used in CRC calculations : Yes
Used interface : Native Win32 interface for Win NT & 2000
Gap handling : Appended to previous track
Used output format : User Defined Encoder
Selected bitrate : 1024 kBit/s
Quality : High
Add ID3 tag : No
Command line compressor : C:\Program Files (x86)\Exact Audio Copy\Flac\flac.exe
Additional command line options : -8 -V -T "ARTIST=%artist%" -T "TITLE=%title%" -T "ALBUM=%albumtitle%" -T "DATE=%year%" -T "TRACKNUMBER=%tracknr%" -T "GENRE=%genre%" -T "PERFORMER=%albuminterpret%" -T "COMPOSER=%composer%" %haslyrics%--tag-from-file=LYRICS="%lyricsfile%"%haslyrics% -T "ALBUMARTIST=%albumartist%" -T "DISCNUMBER=%cdnumber%" -T "TOTALDISCS=%totalcds%" -T "TOTALTRACKS=%numtracks%" -T "COMMENT=%comment%" %source% -o %dest%
TOC of the extracted CD
Track | Start | Length | Start sector | End sector
---------------------------------------------------------
1 | 0:00.00 | 8:52.24 | 0 | 39923
2 | 8:52.24 | 9:04.47 | 39924 | 80770
3 | 17:56.71 | 8:13.26 | 80771 | 117771
4 | 26:10.22 | 15:48.05 | 117772 | 188876
5 | 41:58.27 | 9:39.05 | 188877 | 232306
6 | 51:37.32 | 14:13.33 | 232307 | 296314
Track 1
Filename K:\Rips\Sam Rivers & The Rivbea Orchestra - Trilogy\Disc 1 - Offering\01 - Spice.wav
Pre-gap length 0:00:02.00
Peak level 100.0 %
Extraction speed 1.3 X
Track quality 100.0 %
Test CRC C28F9868
Copy CRC C28F9868
Track not present in AccurateRip database
Copy OK
Track 2
Filename K:\Rips\Sam Rivers & The Rivbea Orchestra - Trilogy\Disc 1 - Offering\02 - Ganymede.wav
Peak level 100.0 %
Extraction speed 1.5 X
Track quality 100.0 %
Test CRC A746CEF6
Copy CRC A746CEF6
Track not present in AccurateRip database
Copy OK
Track 3
Filename K:\Rips\Sam Rivers & The Rivbea Orchestra - Trilogy\Disc 1 - Offering\03 - Crux.wav
Peak level 100.0 %
Extraction speed 1.6 X
Track quality 99.9 %
Test CRC 3D08F186
Copy CRC 3D08F186
Track not present in AccurateRip database
Copy OK
Track 4
Filename K:\Rips\Sam Rivers & The Rivbea Orchestra - Trilogy\Disc 1 - Offering\04 - Aura.wav
Peak level 100.0 %
Extraction speed 2.0 X
Track quality 100.0 %
Test CRC 962A0884
Copy CRC 962A0884
Track not present in AccurateRip database
Copy OK
Track 5
Filename K:\Rips\Sam Rivers & The Rivbea Orchestra - Trilogy\Disc 1 - Offering\05 - Perkin.wav
Peak level 100.0 %
Extraction speed 2.2 X
Track quality 100.0 %
Test CRC 6F2A9863
Copy CRC 6F2A9863
Track not present in AccurateRip database
Copy OK
Track 6
Filename K:\Rips\Sam Rivers & The Rivbea Orchestra - Trilogy\Disc 1 - Offering\06 - Pulsar.wav
Peak level 100.0 %
Extraction speed 2.5 X
Track quality 100.0 %
Test CRC F3FCB5A5
Copy CRC F3FCB5A5
Track not present in AccurateRip database
Copy OK
None of the tracks are present in the AccurateRip database
No errors occurred
End of status report
==== Log checksum F6FDF59B91595294E1A7D1811B54A3BD9336909D4089D50AB1887B3844DBB6C2 ====
 
Лог создания рипа CD2
Exact Audio Copy V1.0 beta 3 from 29. August 2011
EAC extraction logfile from 10. April 2013, 22:42
Sam Rivers & Rivbea Orchestra / Trilogy, Disc 2: Progeny
Used drive : hp BDDVDRW CT21L Adapter: 0 ID: 1
Read mode : Secure
Utilize accurate stream : Yes
Defeat audio cache : Yes
Make use of C2 pointers : No
Read offset correction : 102
Overread into Lead-In and Lead-Out : No
Fill up missing offset samples with silence : Yes
Delete leading and trailing silent blocks : No
Null samples used in CRC calculations : Yes
Used interface : Native Win32 interface for Win NT & 2000
Gap handling : Appended to previous track
Used output format : User Defined Encoder
Selected bitrate : 1024 kBit/s
Quality : High
Add ID3 tag : No
Command line compressor : C:\Program Files (x86)\Exact Audio Copy\Flac\flac.exe
Additional command line options : -8 -V -T "ARTIST=%artist%" -T "TITLE=%title%" -T "ALBUM=%albumtitle%" -T "DATE=%year%" -T "TRACKNUMBER=%tracknr%" -T "GENRE=%genre%" -T "PERFORMER=%albuminterpret%" -T "COMPOSER=%composer%" %haslyrics%--tag-from-file=LYRICS="%lyricsfile%"%haslyrics% -T "ALBUMARTIST=%albumartist%" -T "DISCNUMBER=%cdnumber%" -T "TOTALDISCS=%totalcds%" -T "TOTALTRACKS=%numtracks%" -T "COMMENT=%comment%" %source% -o %dest%
TOC of the extracted CD
Track | Start | Length | Start sector | End sector
---------------------------------------------------------
1 | 0:00.00 | 6:21.31 | 0 | 28605
2 | 6:21.31 | 5:46.50 | 28606 | 54605
3 | 12:08.06 | 6:44.58 | 54606 | 84963
4 | 18:52.64 | 5:10.31 | 84964 | 108244
5 | 24:03.20 | 4:42.70 | 108245 | 129464
6 | 28:46.15 | 5:20.56 | 129465 | 153520
7 | 34:06.71 | 5:40.71 | 153521 | 179091
8 | 39:47.67 | 7:32.07 | 179092 | 212998
9 | 47:19.74 | 6:54.30 | 212999 | 244078
Track 1
Filename K:\Rips\Sam Rivers & The Rivbea Orchestra - Trilogy\Disc 2 - Progeny\01 - Robyn.wav
Pre-gap length 0:00:02.00
Copy aborted
Track 2
Copy aborted
Track 3
Copy aborted
Track 4
Copy aborted
Track 5
Copy aborted
Track 6
Copy aborted
Track 7
Copy aborted
Track 8
Copy aborted
Track 9
Copy aborted
No tracks could be verified as accurate
There were errors
End of status report
==== Log checksum 084C5CE5493C2948B7B429222256BC60A1A88C6A208951A14132808ECB1C2FB3 ====
------------------------------------------------------------
Exact Audio Copy V1.0 beta 3 from 29. August 2011
EAC extraction logfile from 11. April 2013, 0:29
Sam Rivers & Rivbea Orchestra / Trilogy, Disc 2: Progeny
Used drive : hp BDDVDRW CT21L Adapter: 0 ID: 1
Read mode : Secure
Utilize accurate stream : Yes
Defeat audio cache : Yes
Make use of C2 pointers : No
Read offset correction : 102
Overread into Lead-In and Lead-Out : No
Fill up missing offset samples with silence : Yes
Delete leading and trailing silent blocks : No
Null samples used in CRC calculations : Yes
Used interface : Native Win32 interface for Win NT & 2000
Gap handling : Appended to previous track
Used output format : User Defined Encoder
Selected bitrate : 1024 kBit/s
Quality : High
Add ID3 tag : No
Command line compressor : C:\Program Files (x86)\Exact Audio Copy\Flac\flac.exe
Additional command line options : -8 -V -T "ARTIST=%artist%" -T "TITLE=%title%" -T "ALBUM=%albumtitle%" -T "DATE=%year%" -T "TRACKNUMBER=%tracknr%" -T "GENRE=%genre%" -T "PERFORMER=%albuminterpret%" -T "COMPOSER=%composer%" %haslyrics%--tag-from-file=LYRICS="%lyricsfile%"%haslyrics% -T "ALBUMARTIST=%albumartist%" -T "DISCNUMBER=%cdnumber%" -T "TOTALDISCS=%totalcds%" -T "TOTALTRACKS=%numtracks%" -T "COMMENT=%comment%" %source% -o %dest%
TOC of the extracted CD
Track | Start | Length | Start sector | End sector
---------------------------------------------------------
1 | 0:00.00 | 6:21.31 | 0 | 28605
2 | 6:21.31 | 5:46.50 | 28606 | 54605
3 | 12:08.06 | 6:44.58 | 54606 | 84963
4 | 18:52.64 | 5:10.31 | 84964 | 108244
5 | 24:03.20 | 4:42.70 | 108245 | 129464
6 | 28:46.15 | 5:20.56 | 129465 | 153520
7 | 34:06.71 | 5:40.71 | 153521 | 179091
8 | 39:47.67 | 7:32.07 | 179092 | 212998
9 | 47:19.74 | 6:54.30 | 212999 | 244078
Track 1
Filename K:\Rips\Sam Rivers & The Rivbea Orchestra - Trilogy\Disc 2 - Progeny\01 - Robyn.wav
Pre-gap length 0:00:02.00
Peak level 100.0 %
Extraction speed 1.2 X
Track quality 100.0 %
Test CRC 72282DC4
Copy CRC 72282DC4
Track not present in AccurateRip database
Copy OK
Track 2
Filename K:\Rips\Sam Rivers & The Rivbea Orchestra - Trilogy\Disc 2 - Progeny\02 - Cindy.wav
Peak level 100.0 %
Extraction speed 1.4 X
Track quality 100.0 %
Test CRC 4E5686D6
Copy CRC 4E5686D6
Track not present in AccurateRip database
Copy OK
Track 3
Filename K:\Rips\Sam Rivers & The Rivbea Orchestra - Trilogy\Disc 2 - Progeny\03 - Monique.wav
Peak level 100.0 %
Extraction speed 1.6 X
Track quality 100.0 %
Test CRC 99389DED
Copy CRC 99389DED
Track not present in AccurateRip database
Copy OK
Track 4
Filename K:\Rips\Sam Rivers & The Rivbea Orchestra - Trilogy\Disc 2 - Progeny\04 - Traci.wav
Peak level 100.0 %
Extraction speed 1.5 X
Track quality 99.9 %
Test CRC E44247C2
Copy CRC E44247C2
Track not present in AccurateRip database
Copy OK
Track 5
Filename K:\Rips\Sam Rivers & The Rivbea Orchestra - Trilogy\Disc 2 - Progeny\05 - Iisha.wav
Peak level 100.0 %
Extraction speed 1.7 X
Track quality 100.0 %
Test CRC B77CEC8D
Copy CRC B77CEC8D
Track not present in AccurateRip database
Copy OK
Track 6
Filename K:\Rips\Sam Rivers & The Rivbea Orchestra - Trilogy\Disc 2 - Progeny\06 - Tamara.wav
Peak level 100.0 %
Extraction speed 1.9 X
Track quality 100.0 %
Test CRC 744DEEE7
Copy CRC 744DEEE7
Track not present in AccurateRip database
Copy OK
Track 7
Filename K:\Rips\Sam Rivers & The Rivbea Orchestra - Trilogy\Disc 2 - Progeny\07 - Tiffany.wav
Peak level 100.0 %
Extraction speed 1.8 X
Track quality 99.9 %
Test CRC 49F57F7F
Copy CRC 49F57F7F
Track not present in AccurateRip database
Copy OK
Track 8
Filename K:\Rips\Sam Rivers & The Rivbea Orchestra - Trilogy\Disc 2 - Progeny\08 - Jessica.wav
Peak level 100.0 %
Extraction speed 2.2 X
Track quality 100.0 %
Test CRC 479E2B67
Copy CRC 479E2B67
Track not present in AccurateRip database
Copy OK
Track 9
Filename K:\Rips\Sam Rivers & The Rivbea Orchestra - Trilogy\Disc 2 - Progeny\09 - Destiny.wav
Peak level 100.0 %
Extraction speed 2.3 X
Track quality 100.0 %
Test CRC CA7E70C2
Copy CRC CA7E70C2
Track not present in AccurateRip database
Copy OK
None of the tracks are present in the AccurateRip database
No errors occurred
End of status report
==== Log checksum 455B14027A75D75D12541CDEFB77CFA87CFF3C6F58C102E3BB852D7D66F680E8 ====
 
Лог создания рипа CD3
Exact Audio Copy V1.0 beta 3 from 29. August 2011
EAC extraction logfile from 11. April 2013, 20:19
Sam Rivers & Rivbea Orchestra / Trilogy, Disc 3: Edge
Used drive : hp BDDVDRW CT21L Adapter: 0 ID: 1
Read mode : Secure
Utilize accurate stream : Yes
Defeat audio cache : Yes
Make use of C2 pointers : No
Read offset correction : 102
Overread into Lead-In and Lead-Out : No
Fill up missing offset samples with silence : Yes
Delete leading and trailing silent blocks : No
Null samples used in CRC calculations : Yes
Used interface : Native Win32 interface for Win NT & 2000
Gap handling : Appended to previous track
Used output format : User Defined Encoder
Selected bitrate : 1024 kBit/s
Quality : High
Add ID3 tag : No
Command line compressor : C:\Program Files (x86)\Exact Audio Copy\Flac\flac.exe
Additional command line options : -8 -V -T "ARTIST=%artist%" -T "TITLE=%title%" -T "ALBUM=%albumtitle%" -T "DATE=%year%" -T "TRACKNUMBER=%tracknr%" -T "GENRE=%genre%" -T "PERFORMER=%albuminterpret%" -T "COMPOSER=%composer%" %haslyrics%--tag-from-file=LYRICS="%lyricsfile%"%haslyrics% -T "ALBUMARTIST=%albumartist%" -T "DISCNUMBER=%cdnumber%" -T "TOTALDISCS=%totalcds%" -T "TOTALTRACKS=%numtracks%" -T "COMMENT=%comment%" %source% -o %dest%
TOC of the extracted CD
Track | Start | Length | Start sector | End sector
---------------------------------------------------------
1 | 0:00.00 | 10:27.53 | 0 | 47077
2 | 10:27.53 | 11:04.52 | 47078 | 96929
3 | 21:32.30 | 9:29.29 | 96930 | 139633
4 | 31:01.59 | 10:32.01 | 139634 | 187034
5 | 41:33.60 | 10:12.46 | 187035 | 232980
6 | 51:46.31 | 11:38.48 | 232981 | 285378
7 | 63:25.04 | 8:25.04 | 285379 | 323257
Track 1
Filename K:\Rips\Sam Rivers & The Rivbea Orchestra - Trilogy\Disc 3 - Edge\01 - Ridge.wav
Pre-gap length 0:00:02.00
Peak level 100.0 %
Extraction speed 1.4 X
Track quality 100.0 %
Test CRC 4BF2FD4A
Copy CRC 4BF2FD4A
Track not present in AccurateRip database
Copy OK
Track 2
Filename K:\Rips\Sam Rivers & The Rivbea Orchestra - Trilogy\Disc 3 - Edge\02 - Brink.wav
Peak level 100.0 %
Extraction speed 1.7 X
Track quality 100.0 %
Test CRC 40AF2771
Copy CRC 40AF2771
Track not present in AccurateRip database
Copy OK
Track 3
Filename K:\Rips\Sam Rivers & The Rivbea Orchestra - Trilogy\Disc 3 - Edge\03 - Precipice.wav
Peak level 100.0 %
Extraction speed 1.8 X
Track quality 99.9 %
Test CRC 87BA6FD6
Copy CRC 87BA6FD6
Track not present in AccurateRip database
Copy OK
Track 4
Filename K:\Rips\Sam Rivers & The Rivbea Orchestra - Trilogy\Disc 3 - Edge\04 - Verge.wav
Peak level 100.0 %
Extraction speed 2.1 X
Track quality 100.0 %
Test CRC 65ABCE5C
Copy CRC 65ABCE5C
Track not present in AccurateRip database
Copy OK
Track 5
Filename K:\Rips\Sam Rivers & The Rivbea Orchestra - Trilogy\Disc 3 - Edge\05 - Point.wav
Peak level 100.0 %
Extraction speed 2.3 X
Track quality 100.0 %
Test CRC ADE069E1
Copy CRC ADE069E1
Track not present in AccurateRip database
Copy OK
Track 6
Filename K:\Rips\Sam Rivers & The Rivbea Orchestra - Trilogy\Disc 3 - Edge\06 - Visions.wav
Peak level 100.0 %
Extraction speed 2.5 X
Track quality 100.0 %
Test CRC 18D765D4
Copy CRC 18D765D4
Track not present in AccurateRip database
Copy OK
Track 7
Filename K:\Rips\Sam Rivers & The Rivbea Orchestra - Trilogy\Disc 3 - Edge\07 - Pulsar.wav
Peak level 100.0 %
Extraction speed 2.6 X
Track quality 100.0 %
Test CRC A5D03E25
Copy CRC A5D03E25
Track not present in AccurateRip database
Copy OK
None of the tracks are present in the AccurateRip database
No errors occurred
End of status report
==== Log checksum 12F193FE8AF170DB6225B81FCDF224F73CC72879560C15027CBF5798B1A69335 ====
 
Содержание индексной карты (.CUE) CD1
REM GENRE Jazz
REM DATE 2011
REM DISCID 4B0F6E06
REM COMMENT "ExactAudioCopy v1.0b3"
PERFORMER "Sam Rivers & The Rivbea Orchestra"
TITLE "Trilogy CD1"
FILE "01 - Spice.wav" WAVE
TRACK 01 AUDIO
TITLE "Spice"
PERFORMER "Sam Rivers & The Rivbea Orchestra"
INDEX 01 00:00:00
FILE "02 - Ganymede.wav" WAVE
TRACK 02 AUDIO
TITLE "Ganymede"
PERFORMER "Sam Rivers & The Rivbea Orchestra"
INDEX 01 00:00:00
FILE "03 - Crux.wav" WAVE
TRACK 03 AUDIO
TITLE "Crux"
PERFORMER "Sam Rivers & The Rivbea Orchestra"
INDEX 01 00:00:00
FILE "04 - Aura.wav" WAVE
TRACK 04 AUDIO
TITLE "Aura"
PERFORMER "Sam Rivers & The Rivbea Orchestra"
INDEX 01 00:00:00
FILE "05 - Perkin.wav" WAVE
TRACK 05 AUDIO
TITLE "Perkin"
PERFORMER "Sam Rivers & The Rivbea Orchestra"
INDEX 01 00:00:00
FILE "06 - Pulsar.wav" WAVE
TRACK 06 AUDIO
TITLE "Pulsar"
PERFORMER "Sam Rivers & The Rivbea Orchestra"
INDEX 01 00:00:00
 
Содержание индексной карты (.CUE) CD2
REM GENRE Jazz
REM DATE 2011
REM DISCID 760CB609
REM COMMENT "ExactAudioCopy v1.0b3"
PERFORMER "Sam Rivers & The Rivbea Orchestra"
TITLE "Trilogy CD2"
FILE "01 - Robyn.wav" WAVE
TRACK 01 AUDIO
TITLE "Robyn"
PERFORMER "Sam Rivers & The Rivbea Orchestra"
INDEX 01 00:00:00
FILE "02 - Cindy.wav" WAVE
TRACK 02 AUDIO
TITLE "Cindy"
PERFORMER "Sam Rivers & The Rivbea Orchestra"
INDEX 01 00:00:00
FILE "03 - Monique.wav" WAVE
TRACK 03 AUDIO
TITLE "Monique"
PERFORMER "Sam Rivers & The Rivbea Orchestra"
INDEX 01 00:00:00
FILE "04 - Traci.wav" WAVE
TRACK 04 AUDIO
TITLE "Traci"
PERFORMER "Sam Rivers & The Rivbea Orchestra"
INDEX 01 00:00:00
FILE "05 - Iisha.wav" WAVE
TRACK 05 AUDIO
TITLE "Iisha"
PERFORMER "Sam Rivers & The Rivbea Orchestra"
INDEX 01 00:00:00
FILE "06 - Tamara.wav" WAVE
TRACK 06 AUDIO
TITLE "Tamara"
PERFORMER "Sam Rivers & The Rivbea Orchestra"
INDEX 01 00:00:00
FILE "07 - Tiffany.wav" WAVE
TRACK 07 AUDIO
TITLE "Tiffany"
PERFORMER "Sam Rivers & The Rivbea Orchestra"
INDEX 01 00:00:00
FILE "08 - Jessica.wav" WAVE
TRACK 08 AUDIO
TITLE "Jessica"
PERFORMER "Sam Rivers & The Rivbea Orchestra"
INDEX 01 00:00:00
FILE "09 - Destiny.wav" WAVE
TRACK 09 AUDIO
TITLE "Destiny"
PERFORMER "Sam Rivers & The Rivbea Orchestra"
INDEX 01 00:00:00
 
Содержание индексной карты (.CUE) CD3
REM GENRE Jazz
REM DATE 2011
REM DISCID 6710D607
REM COMMENT "ExactAudioCopy v1.0b3"
PERFORMER "Sam Rivers & The Rivbea Orchestra"
TITLE "Trilogy CD3"
FILE "01 - Ridge.wav" WAVE
TRACK 01 AUDIO
TITLE "Ridge"
PERFORMER "Sam Rivers & The Rivbea Orchestra"
INDEX 01 00:00:00
FILE "02 - Brink.wav" WAVE
TRACK 02 AUDIO
TITLE "Brink"
PERFORMER "Sam Rivers & The Rivbea Orchestra"
INDEX 01 00:00:00
FILE "03 - Precipice.wav" WAVE
TRACK 03 AUDIO
TITLE "Precipice"
PERFORMER "Sam Rivers & The Rivbea Orchestra"
INDEX 01 00:00:00
FILE "04 - Verge.wav" WAVE
TRACK 04 AUDIO
TITLE "Verge"
PERFORMER "Sam Rivers & The Rivbea Orchestra"
INDEX 01 00:00:00
FILE "05 - Point.wav" WAVE
TRACK 05 AUDIO
TITLE "Point"
PERFORMER "Sam Rivers & The Rivbea Orchestra"
INDEX 01 00:00:00
FILE "06 - Visions.wav" WAVE
TRACK 06 AUDIO
TITLE "Visions"
PERFORMER "Sam Rivers & The Rivbea Orchestra"
INDEX 01 00:00:00
FILE "07 - Pulsar.wav" WAVE
TRACK 07 AUDIO
TITLE "Pulsar"
PERFORMER "Sam Rivers & The Rivbea Orchestra"
INDEX 01 00:00:00
 
Об альбоме (сборнике)
By the time Sam Rivers was able to document his orchestral writing in 1974 (on the Impulse album "Crystals") at the tender age of 51, he was best known for leading a magnificent, purely improvised trio devoid of all written music. But composition was (and is) as much a part of his incessantly fertile mind as improvisation.
His densely-layered and beautifully voiced multi-sectional orchestra pieces burn with an intensity that never forsakes the music's beauty. Rivers seamlessly integrates improvisation into the written score. Solos are distributed democratically as effective, concise statements.
In 1992, Rivers moved to Orlando, Florida where he quickly formed another powerful improvising trio and set about seeking personnel to form an orchestra for the music that he was constantly writing. After two all-star albums for RCA Records in 1998 ("Inspiration" and "Culmination"), recorded in New York, an Orlando edition of the Rivbea Orchestra started to emerge.
Drawn from teachers and students at surrounding colleges, frustrated members of various Walt Disney World aggregations and retired veterans of orchestras like Tommy Dorsey and Woody Herman, Sam Rivers crafted a first-class orchestra to realize his music. In 2005, he issued the new Rivbea Orchestra's first recording "Airora" on his own Rivbea label.
When we heard the album, we called Sam to offer our jaw-dropping praise, he told us essentially there is plenty more where that came from and set about sifting through hours of studio and live recordings to cull the three CDs of previously unreleased material contained in this set. The results are forward-thinking and electrifying.
"Anthony Braxton used to point out how multi-vectored, multi-layered music would prepare us for the very kind of world we're living in now, when information streams from multiple devices bombard before we're out of bed. Heard from that perspective, the music of Sam Rivers' RivBea Orchestra is a mirror of modern urban life. There are towering edifices on all sides, and a teeming population thriving within and between.
The thick lines and masses of sound Rivers writes for the orchestra of 14 horns and two rhythm are imposingly complex, and his creative orchestra music doesn't sound like anyone else's: not Sun Ra's, or Braxton's, or Julius Hemphill's. But there are some parallels: to Muhal Richard Abrams's large ensembles that embrace vernaculars from 1920s jazz to atonal concert music, mixing the familiar and novel; to circa-1970 Woody Herman, deploying funk and rock beats on Temptations and Doors tunes; to James Brown's static-harmony horns-and-rhythm funk.
The RivBea Orchestra transcends notions of the traditional and the avant-garde; it's bracingly dissonant, but all about forms and variations. For all Rivers' idiosyncrasies, big band conventions abound: 4 and 8-bar blocks, brass punches, motifs volleyed between horn sections, focused solos, and heart-quickening excitement."
-- Kevin Whitehead, liner notes
 
Состав
CD1:
Sam Rivers (soprano sax, tenor sax),
Jeff Rupert (1st alto sax)
Chris Charles (2nd alto sax)
David Pate (1st tenor sax)
George Weremchuk (2nd tenor sax)
Brian Mackie (baritone sax)
Tom Parmenter (1st trumpet),
Brian Scanlon (2nd trumpet)
Mike Iapichino (3rd trumpet)
David Jones (4th trumpet)
Keith Oshiro (1st trombone)
Tito Sanchez (2nd trombone)
Steve Smith (3rd trombone)
Josh Parsons (4th trombone, tuba)
Doug Mathews (bass)
Rion Smith (drums).
Recorded live at the Plaza Theatre, Orlando, Florida on November 12, 2008
CD2:
Sam Rivers (tenor sax),
Jeff Rupert (1st alto sax)
Chris Charles (2nd alto sax)
Charlie DeChant (1st tenor sax),
George Weremchuk (2nd tenor sax)
Brian Mackie (baritone sax)
Tom Parmenter (1st trumpet)
Brian Scanlon (2nd trumpet),
Mike Iapichino (3rd trumpet)
David Jones (4th trumpet)
Keith Oshiro (1st trombone)
David Sheffield (2nd trombone)
Claire Courchene (3rd trombone)
Josh Parsons (4th trombone, tuba)
Doug Mathews (bass)
Rion Smith (drums)
Recorded at Sonic Caldron Studios, Casselberry, Florida on February 27, 2008
CD3:
Sam Rivers (soprano sax)
Jeff Rupert (1st alto sax)
Chris Charles (2nd alto sax)
Charlie DeChant (1st tenor sax)
David Pate (2nd tenor sax)
Brian Mackie (baritone sax)
Tom Parmenter (1st trumpet)
Brian Scanlon (2nd trumpet)
Mike Iapichino (3rd trumpet)
David Jones (4th trumpet)
Keith Oshiro (1st trombone)
David Sheffield (2nd trombone),
Steve Smith (3rd trombone)
Josh Parsons (4th trombone, tuba)
Doug Mathews (bass)
Rion Smith (drums)
Recorded live at the Plaza Theatre, Orlando, Florida on April 8, 2009.
Any questions -> support@pro-jazz.com. По всем вопросам пишите -> support@pro-jazz.com
10:57
220
Нет комментариев. Ваш будет первым!