Вы используете незарегистрированную версию компонента "Вкладки"!

Поиск

(Avant-Garde Jazz / Jazz-Rock / Fusion) Niechęć (Niechec) - Smierc w miekkim futerku - 2012, FLAC (tracks), lossless

(Avant-Garde Jazz / Jazz-Rock / Fusion) Niechęć (Niechec) - Smierc w miekkim futerku - 2012, FLAC (tracks), lossless
Треклист:
Niechęć - Śmierć w miękkim futerku
Жанр: Avant-Garde Jazz / Jazz-Rock / Fusion
Страна-производитель диска: Poland
Год издания: 2012
Издатель (лейбл): Wytwórnia Krajowa
Номер по каталогу: WK04
Страна исполнителя (группы): Poland
Аудиокодек: FLAC (*.flac)
Тип рипа: tracks
Битрейт аудио: lossless
Продолжительность: 00:39:57
Источник (релизер): what.cd / спасибо kivius
Наличие сканов в содержимом раздачи: нет
Треклист:
1. After You (05:50)
2. Taksówkarz (04:13)
3. Mojry (04:29)
4. Niespokojny relaks (02:55)
5. Relaks Dub (03:29)
6. Drugi turnus w Pucku (03:23)
7. Prozak (04:00)
8. Fecaliano (03:25)
9. Śmierc w miękkim futerku (08:10)
Доп. информация:
Musicians:
Maciek Zwierzchowski - saxophone
Rafał Błaszczak - guitar
Tomasz Wielechowski - piano
Stefan Nowakowski - double bass
Michał Kaczorek - drums
Niechęć- Śmierć w miękkim futerku screenagers.pl
Niechęć wytworniakrajowa.pl
Niechęć Official Site
 
Лог создания рипа
Exact Audio Copy V1.0 beta 3 from 29. August 2011
EAC extraction logfile from 6. April 2013, 14:24
Niechęć / Śmierć W Miękkim Futerku
Used drive : SlimtypeeSAU108 8 Adapter: 2 ID: 0
Read mode : Secure
Utilize accurate stream : Yes
Defeat audio cache : Yes
Make use of C2 pointers : No
Read offset correction : 6
Overread into Lead-In and Lead-Out : No
Fill up missing offset samples with silence : Yes
Delete leading and trailing silent blocks : No
Null samples used in CRC calculations : Yes
Used interface : Native Win32 interface for Win NT & 2000
Gap handling : Appended to previous track
Used output format : User Defined Encoder
Selected bitrate : 1024 kBit/s
Quality : High
Add ID3 tag : No
Command line compressor : C:\Program Files (x86)\Exact Audio Copy\Flac\flac.exe
Additional command line options : -8 -V -T "ARTIST=%artist%" -T "TITLE=%title%" -T "ALBUM=%albumtitle%" -T "DATE=%year%" -T "TRACKNUMBER=%tracknr%" -T "GENRE=%genre%" -T "PERFORMER=%albuminterpret%" -T "COMPOSER=%composer%" %haslyrics%--tag-from-file=LYRICS="%lyricsfile%"%haslyrics% -T "ALBUMARTIST=%albumartist%" -T "DISCNUMBER=%cdnumber%" -T "TOTALDISCS=%totalcds%" -T "TOTALTRACKS=%numtracks%" -T "COMMENT=%comment%" %source% -o %dest%
TOC of the extracted CD
Track | Start | Length | Start sector | End sector
---------------------------------------------------------
1 | 0:00.00 | 5:50.42 | 0 | 26291
2 | 5:50.42 | 4:13.49 | 26292 | 45315
3 | 10:04.16 | 4:29.01 | 45316 | 65491
4 | 14:33.17 | 2:55.16 | 65492 | 78632
5 | 17:28.33 | 3:29.49 | 78633 | 94356
6 | 20:58.07 | 3:23.06 | 94357 | 109587
7 | 24:21.13 | 4:00.39 | 109588 | 127626
8 | 28:21.52 | 3:24.72 | 127627 | 142998
9 | 31:46.49 | 8:10.68 | 142999 | 179816
Track 1
Filename G:\_MUSIC ALL\Niechec - Smierc W Miekkim Futerku (2012) [FLAC]\01 - After You.wav
Pre-gap length 0:00:02.00
Peak level 100.0 %
Extraction speed 1.2 X
Track quality 99.9 %
Test CRC C9B3EECD
Copy CRC C9B3EECD
Cannot be verified as accurate (confidence 1) [3A36EC4B], AccurateRip returned [51E10C1F] (AR v2)
Copy OK
Track 2
Filename G:\_MUSIC ALL\Niechec - Smierc W Miekkim Futerku (2012) [FLAC]\02 - Taksówkarz.wav
Peak level 100.0 %
Extraction speed 1.3 X
Track quality 99.9 %
Test CRC F56AC53E
Copy CRC F56AC53E
Cannot be verified as accurate (confidence 1) [4A77D0E3], AccurateRip returned [21F4682A] (AR v2)
Copy OK
Track 3
Filename G:\_MUSIC ALL\Niechec - Smierc W Miekkim Futerku (2012) [FLAC]\03 - Mojry.wav
Peak level 100.0 %
Extraction speed 1.5 X
Track quality 100.0 %
Test CRC AA3E971E
Copy CRC AA3E971E
Cannot be verified as accurate (confidence 1) [87541062], AccurateRip returned [CB243627] (AR v2)
Copy OK
Track 4
Filename G:\_MUSIC ALL\Niechec - Smierc W Miekkim Futerku (2012) [FLAC]\04 - Niespokojny relaks.wav
Peak level 100.0 %
Extraction speed 1.5 X
Track quality 100.0 %
Test CRC 2B8914D6
Copy CRC 2B8914D6
Cannot be verified as accurate (confidence 1) [B8411AC3], AccurateRip returned [9D65A979] (AR v2)
Copy OK
Track 5
Filename G:\_MUSIC ALL\Niechec - Smierc W Miekkim Futerku (2012) [FLAC]\05 - Relaks Dub.wav
Peak level 100.0 %
Extraction speed 1.6 X
Track quality 100.0 %
Test CRC 45B6479B
Copy CRC 45B6479B
Cannot be verified as accurate (confidence 1) [5F82285B], AccurateRip returned [3104AB11] (AR v2)
Copy OK
Track 6
Filename G:\_MUSIC ALL\Niechec - Smierc W Miekkim Futerku (2012) [FLAC]\06 - Drugi turnus w Pucku.wav
Peak level 100.0 %
Extraction speed 1.7 X
Track quality 100.0 %
Test CRC 8BA88928
Copy CRC 8BA88928
Cannot be verified as accurate (confidence 1) [A27BF7E6], AccurateRip returned [8035D2D2] (AR v2)
Copy OK
Track 7
Filename G:\_MUSIC ALL\Niechec - Smierc W Miekkim Futerku (2012) [FLAC]\07 - Prozak.wav
Peak level 100.0 %
Extraction speed 1.8 X
Track quality 100.0 %
Test CRC 2D134D00
Copy CRC 2D134D00
Cannot be verified as accurate (confidence 1) [BCA883E1], AccurateRip returned [DCC6889C] (AR v2)
Copy OK
Track 8
Filename G:\_MUSIC ALL\Niechec - Smierc W Miekkim Futerku (2012) [FLAC]\08 - Fecaliano.wav
Peak level 100.0 %
Extraction speed 1.9 X
Track quality 100.0 %
Test CRC 40693CDC
Copy CRC 40693CDC
Cannot be verified as accurate (confidence 1) [AF09A028], AccurateRip returned [461781AA] (AR v2)
Copy OK
Track 9
Filename G:\_MUSIC ALL\Niechec - Smierc W Miekkim Futerku (2012) [FLAC]\09 - Śmierć w miękkim futerku.wav
Peak level 100.0 %
Extraction speed 2.2 X
Track quality 100.0 %
Test CRC E71AAB60
Copy CRC E71AAB60
Cannot be verified as accurate (confidence 1) [AF9EC8EC], AccurateRip returned [6C9712A0] (AR v2)
Copy OK
No tracks could be verified as accurate
You may have a different pressing from the one(s) in the database
No errors occurred
End of status report
---- CUETools DB Plugin V2.1.3
[CTDB TOCID: vzg3JAKqVFuvMCl1JrztGKEcql0-] found, Submit result: vzg3JAKqVFuvMCl1JrztGKEcql0- has been confirmed
[be39d867] (3/3) Accurately ripped
==== Log checksum 0FF923F493EAB8769E98803A2DDAAD159BFD1D9A816237554F9EBB328C716C6C ====
 
auCDtect Task Manager
-----------------------
DON'T MODIFY THIS FILE
-----------------------
PERFORMER: auCDtect Task Manager, ver. 1.5.1RC6 build 1.5.1.7
Copyright (c) 2008-2010 y-soft. All rights reserved
http://y-soft.org
ANALYZER: auCDtect: CD records authenticity detector, version 0.8.2
Copyright (c) 2004 Oleg Berngardt. All rights reserved.
Copyright (c) 2004 Alexander Djourik. All rights reserved.
FILE: 09 - Smierc w miekkim futerku.flac
Size: 44043151 Hash: 580AF34EB3F98176920C5F559F6573DF Accuracy: -m0
Conclusion: CDDA 94%
Signature: A6E8D7242E44F299FAD8653A2218EFB8C10FBB93
FILE: 08 - Fecaliano.flac
Size: 22752607 Hash: 4405F0C7E0386E8D636C285FF3C36A30 Accuracy: -m0
Conclusion: CDDA 100%
Signature: BFF842806392A7FB222218579B7F130F7FB7C86A
FILE: 07 - Prozak.flac
Size: 28531806 Hash: FB7146C634DCA6E527921EB4DFC9CB0E Accuracy: -m0
Conclusion: CDDA 100%
Signature: BFE8E7DF1354553922B800DCD4E3C1BE8795F004
FILE: 06 - Drugi turnus w Pucku.flac
Size: 21911631 Hash: 1319C08C0BD7AC85B978CAFD3970FEF4 Accuracy: -m0
Conclusion: CDDA 100%
Signature: 183B93AE34B8EA99BA93B36575BE79AC094BFE65
FILE: 05 - Relaks Dub.flac
Size: 21747029 Hash: 18E481EDFE2D5338689CC342CE96670C Accuracy: -m0
Conclusion: CDDA 100%
Signature: 845D867C50721D1D0450630BD613DEC82F8AB933
FILE: 04 - Niespokojny relaks.flac
Size: 20195402 Hash: 6E5849F84C913B8336D87CE9519626CF Accuracy: -m0
Conclusion: CDDA 100%
Signature: 8FBD64D2FEE346FE0129B39688E2E89AD7F20145
FILE: 03 - Mojry.flac
Size: 25316641 Hash: 4FBC46BCC8FA7AED356D5E27968BED8B Accuracy: -m0
Conclusion: CDDA 100%
Signature: FD9FAC76FD79F3C5B21A359307C745C1AD7FBBBA
FILE: 02 - Taksowkarz.flac
Size: 31780550 Hash: 20F7AF6E69147CDF3CD8ACB09A76EA31 Accuracy: -m0
Conclusion: CDDA 100%
Signature: F9C88353C3170DA2EC074D82FE57C722CC473F9A
FILE: 01 - After You.flac
Size: 37526526 Hash: E1D8E3A37ECE78AA889F8BA694D98B62 Accuracy: -m0
Conclusion: CDDA 100%
Signature: 1FE19CF44477D29B4BEA0295EDF949BE5F477AE5
Any questions -> support@pro-jazz.com. По всем вопросам пишите -> support@pro-jazz.com
10:55
184
Нет комментариев. Ваш будет первым!