Вы используете незарегистрированную версию компонента "Вкладки"!

Поиск

(Avant-garde Jazz) Cor Fuhler (Ab Baars, Tobias Delius, Wilbert de Joode.....) - Corkestra - 2004, FLAC (image+.cue), lossless

(Avant-garde Jazz) Cor Fuhler (Ab Baars, Tobias Delius, Wilbert de Joode.....) - Corkestra - 2004, FLAC (image+.cue), lossless
Треклист:
Cor Fuhler / Corkestra
Жанр: Avant-garde Jazz
Страна-производитель диска: Netherlands
Год издания диска: 2004
Издатель (лейбл): Data Records
Номер по каталогу: DATA:044
Аудиокодек: FLAC (*.flac)
Тип рипа: image+.cue
Битрейт аудио: lossless
Продолжительность: 56:37
Источник (релизер): cd
Наличие сканов в содержимом раздачи: нет
Треклист:
1 Zand I 3:07
2 Triangle Sun 5:19
3 Green Peppers 4:38
4 Zwerfduin 5:24
5 Lollipops/Woestijntrol 5:33
6 Dromedaris 6:01
7 Cosinus 7:20
8 Zand II 3:03
9 Zout I 5:53
10 Rockpool 6:17
11 Water Supply 3:23
 
Лог создания рипа
Exact Audio Copy V1.0 beta 2 from 29. April 2011
EAC extraction logfile from 5. October 2011, 13:07
Fuhler Cor / Corkestra
Used drive : Optiarc DVD RW AD-7170A Adapter: 0 ID: 0
Read mode : Secure
Utilize accurate stream : Yes
Defeat audio cache : Yes
Make use of C2 pointers : No
Read offset correction : 48
Overread into Lead-In and Lead-Out : No
Fill up missing offset samples with silence : Yes
Delete leading and trailing silent blocks : No
Null samples used in CRC calculations : Yes
Used interface : Native Win32 interface for Win NT & 2000
Used output format : User Defined Encoder
Selected bitrate : 320 kBit/s
Quality : High
Add ID3 tag : No
Command line compressor : C:\Program Files\Exact Audio Copy\Flac\flac.exe
Additional command line options : -V -8 -T "Date=%year%" -T "Genre=%genre%" %source%
TOC of the extracted CD
Track | Start | Length | Start sector | End sector
---------------------------------------------------------
1 | 0:00.00 | 3:11.20 | 0 | 14344
2 | 3:11.20 | 5:22.49 | 14345 | 38543
3 | 8:33.69 | 4:42.09 | 38544 | 59702
4 | 13:16.03 | 5:27.62 | 59703 | 84289
5 | 18:43.65 | 5:36.67 | 84290 | 109556
6 | 24:20.57 | 6:04.65 | 109557 | 136921
7 | 30:25.47 | 7:23.40 | 136922 | 170186
8 | 37:49.12 | 3:06.59 | 170187 | 184195
9 | 40:55.71 | 5:57.07 | 184196 | 210977
10 | 46:53.03 | 6:21.23 | 210978 | 239575
11 | 53:14.26 | 3:23.24 | 239576 | 254824
Range status and errors
Selected range
Filename C:\EAC\Downloads\Fuhler Cor - Corkestra.wav
Copy aborted
End of status report
==== Log checksum 7DD0779072A57336EC6CEC4493CC463A6F6289531B098406FFE0D7FF7939334B ====
------------------------------------------------------------
Exact Audio Copy V1.0 beta 2 from 29. April 2011
EAC extraction logfile from 5. October 2011, 14:55
Fuhler Cor / Corkestra
Used drive : Optiarc DVD RW AD-7170A Adapter: 0 ID: 0
Read mode : Secure
Utilize accurate stream : Yes
Defeat audio cache : Yes
Make use of C2 pointers : No
Read offset correction : 48
Overread into Lead-In and Lead-Out : No
Fill up missing offset samples with silence : Yes
Delete leading and trailing silent blocks : No
Null samples used in CRC calculations : Yes
Used interface : Native Win32 interface for Win NT & 2000
Used output format : User Defined Encoder
Selected bitrate : 320 kBit/s
Quality : High
Add ID3 tag : No
Command line compressor : C:\Program Files\Exact Audio Copy\Flac\flac.exe
Additional command line options : -V -8 -T "Date=%year%" -T "Genre=%genre%" %source%
TOC of the extracted CD
Track | Start | Length | Start sector | End sector
---------------------------------------------------------
1 | 0:00.00 | 3:11.20 | 0 | 14344
2 | 3:11.20 | 5:22.49 | 14345 | 38543
3 | 8:33.69 | 4:42.09 | 38544 | 59702
4 | 13:16.03 | 5:27.62 | 59703 | 84289
5 | 18:43.65 | 5:36.67 | 84290 | 109556
6 | 24:20.57 | 6:04.65 | 109557 | 136921
7 | 30:25.47 | 7:23.40 | 136922 | 170186
8 | 37:49.12 | 3:06.59 | 170187 | 184195
9 | 40:55.71 | 5:57.07 | 184196 | 210977
10 | 46:53.03 | 6:21.23 | 210978 | 239575
11 | 53:14.26 | 3:23.24 | 239576 | 254824
Range status and errors
Selected range
Filename C:\Documents and Settings\Игорь\Мои документы\Downloads\Fuhler Cor - Corkestra.wav
Peak level 100.0 %
Extraction speed 2.0 X
Range quality 99.9 %
Test CRC E36BDA11
Copy CRC E36BDA11
Copy OK
No errors occurred
AccurateRip summary
Track 1 accurately ripped (confidence 1) [7B288F4D] (AR v2)
Track 2 accurately ripped (confidence 1) [B10E0DFC] (AR v2)
Track 3 accurately ripped (confidence 1) [02068CE7] (AR v2)
Track 4 accurately ripped (confidence 1) [967F6258] (AR v2)
Track 5 accurately ripped (confidence 1) [455FE26C] (AR v2)
Track 6 accurately ripped (confidence 1) [CEA4F13F] (AR v2)
Track 7 accurately ripped (confidence 1) [7293C163] (AR v2)
Track 8 accurately ripped (confidence 1) [73C329F0] (AR v2)
Track 9 accurately ripped (confidence 1) [C9C4D5C3] (AR v2)
Track 10 accurately ripped (confidence 1) [7C069357] (AR v2)
Track 11 accurately ripped (confidence 1) [42B215D9] (AR v2)
All tracks accurately ripped
End of status report
==== Log checksum 27D24F19F719179D3A09783509111F1AA7C39168E679FA62AA6C3902E4FDB67E ====
 
Содержание индексной карты (.CUE)
REM GENRE Jazz
REM DATE 2004
REM DISCID 9B0D450B
REM COMMENT "ExactAudioCopy v1.0b2"
PERFORMER "Fuhler Cor"
TITLE "Corkestra"
FILE "Fuhler Cor - Corkestra.flac" WAVE
TRACK 01 AUDIO
TITLE "Zand i"
PERFORMER "Fuhler Cor"
ISRC NLB970440001
INDEX 01 00:00:00
TRACK 02 AUDIO
TITLE "Triangle Sun"
PERFORMER "Fuhler Cor"
ISRC NLB970440002
INDEX 00 03:07:20
INDEX 01 03:11:20
TRACK 03 AUDIO
TITLE "Green Peppers"
PERFORMER "Fuhler Cor"
ISRC NLB970440003
INDEX 00 08:29:69
INDEX 01 08:33:69
TRACK 04 AUDIO
TITLE "Zwerfduin"
PERFORMER "Fuhler Cor"
ISRC NLB970440004
INDEX 00 13:12:03
INDEX 01 13:16:03
TRACK 05 AUDIO
TITLE "Lollipops /Woestijntrol"
PERFORMER "Fuhler Cor"
ISRC NLB970440005
INDEX 00 18:39:65
INDEX 01 18:43:65
TRACK 06 AUDIO
TITLE "Dromedaris"
PERFORMER "Fuhler Cor"
ISRC NLB970440006
INDEX 00 24:16:57
INDEX 01 24:20:57
TRACK 07 AUDIO
TITLE "Cosinus"
PERFORMER "Fuhler Cor"
ISRC NLB970440007
INDEX 00 30:21:47
INDEX 01 30:25:47
TRACK 08 AUDIO
TITLE "Zand II"
PERFORMER "Fuhler Cor"
ISRC NLB970440008
INDEX 00 37:45:12
INDEX 01 37:49:12
TRACK 09 AUDIO
TITLE "Zout I"
PERFORMER "Fuhler Cor"
ISRC NLB970440009
INDEX 00 40:51:71
INDEX 01 40:55:71
TRACK 10 AUDIO
TITLE "Rockpool"
PERFORMER "Fuhler Cor"
ISRC NLB970440010
INDEX 00 46:49:03
INDEX 01 46:53:03
TRACK 11 AUDIO
TITLE "Water Supply"
PERFORMER "Fuhler Cor"
ISRC NLB970440011
INDEX 00 53:10:26
INDEX 01 53:14:26
Доп. информация: Recorded by Dick Lucas, March 20 & 21 2004 at the Bimhuis Amsterdam
 
Состав
Cimbalom – Nora Mulder
Clarinet – Ab Baars, Tobias Delius
Clavinet, Organ, Piano, Composed By – Cor Fuhler
Double Bass – Wilbert de Joode
Dulcimer [Hammer], Saw [Singing] – Michael Vatcher
Electric Guitar – Andy Moor
Flute – Anne La Berge
Percussion – Michael Vatcher, Tony Buck
Tenor Saxophone – Ab Baars, Tobias Delius
Any questions -> support@pro-jazz.com. По всем вопросам пишите -> support@pro-jazz.com
17:19
141
Нет комментариев. Ваш будет первым!