Вы используете незарегистрированную версию компонента "Вкладки"!

Поиск

(Avant-Garde, Free Jazz, Contemporary) Joelle Leandre's Canvas Trio - L'Histoire De Mme. Tasco {Hat Hut Rec. hat ART CD 6122, Switzerland} - 1993, APE (image+.cue) lossless

(Avant-Garde, Free Jazz, Contemporary) Joelle Leandre's Canvas Trio - L'Histoire De Mme. Tasco {Hat Hut Rec. hat ART CD 6122, Switzerland} - 1993, APE (image+.cue) lossless
Треклист:
Joëlle Léandre's Canvas Trio - L'Histoire De Mme. Tasco
Жанр: Avant-Garde, Free Jazz, Contemporary
Страна-производитель диска: Switzerland
Год издания диска: 1993
Издатель (лейбл): Hat Hut Records
Номер по каталогу: hat ART CD 6122
Аудио кодек: APE (*.ape)
Тип рипа: image+.cue
Битрейт аудио: lossless
Продолжительность: 00:43:35
Источник (релизер): basa005
Наличие сканов в содержимом раздачи: да
Треклист:
1. Trio
2. Waspgame
3. Shakuachi 2
4. Histoire de Mme. Tasco
- L'Histoire
- Prés de Thionville
- Coup d'Oeil
- Morceau qui marche
- Endless Waltz
5. Today and Tomorrow
6. Âme Profonde
7. Sag Mir Warum
Recorded March 25 and April 3, 1992 at Stadtgarten Köln and Alte Oper Frankfurt by Christian Schmitt
Personnel:
Joëlle Léandre's Canvas Trio:
Joëlle Léandre - bass, voice
Rüdiger Carl - accordion, clarinet
Carlos Zingaro - violin
 
Лог создания рипа (EAC Log)
Exact Audio Copy V1.0 beta 2 from 29. April 2011
EAC extraction logfile from 4. October 2011, 15:31
Joëlle Léandre's Canvas Trio / L'Histoire de Mme. Tasco
Used drive : TSSTcorpCDDVDW SE-S204N Adapter: 2 ID: 0
Read mode : Secure
Utilize accurate stream : Yes
Defeat audio cache : Yes
Make use of C2 pointers : No
Read offset correction : 6
Overread into Lead-In and Lead-Out : No
Fill up missing offset samples with silence : Yes
Delete leading and trailing silent blocks : No
Null samples used in CRC calculations : No
Used interface : Native Win32 interface for Win NT & 2000
Used output format : Internal WAV Routines
Sample format : 44.100 Hz; 16 Bit; Stereo
TOC of the extracted CD
Track | Start | Length | Start sector | End sector
---------------------------------------------------------
1 | 0:00.00 | 3:49.62 | 0 | 17236
2 | 3:49.62 | 1:36.00 | 17237 | 24436
3 | 5:25.62 | 5:33.00 | 24437 | 49411
4 | 10:58.62 | 21:00.00 | 49412 | 143911
5 | 31:58.62 | 3:35.00 | 143912 | 160036
6 | 35:33.62 | 4:25.00 | 160037 | 179911
7 | 39:58.62 | 3:37.13 | 179912 | 196199
Range status and errors
Selected range
Filename C:\avaxhome\Joëlle Léandre's Canvas Trio - L'Histoire de Mme. Tasco.wav
Peak level 92.0 %
Extraction speed 6.5 X
Range quality 100.0 %
Copy CRC 47259036
Copy OK
No errors occurred
AccurateRip summary
Track 1 accurately ripped (confidence 4) [955076A8] (AR v1)
Track 2 accurately ripped (confidence 4) [3FABE9CA] (AR v1)
Track 3 accurately ripped (confidence 4) [FC93A6E7] (AR v1)
Track 4 accurately ripped (confidence 4) [B9679E10] (AR v1)
Track 5 accurately ripped (confidence 4) [A511FCA0] (AR v1)
Track 6 accurately ripped (confidence 4) [51D40910] (AR v1)
Track 7 accurately ripped (confidence 4) [12CB58EE] (AR v1)
All tracks accurately ripped
End of status report
==== Log checksum 354230DC2E7414DE6AF4CB96F8397CF2307E70BD665B51320920C3F2FEA863BD ====
 
Содержание индексной карты (.CUE)
REM GENRE Other
REM DATE 1993
REM DISCID 3D0A3807
REM COMMENT "ExactAudioCopy v1.0b2"
PERFORMER "Joelle Leandre's Canvas Trio"
TITLE "L'Histoire De Mme. Tasco"
FILE "Joelle Leandre's Canvas Trio - L'Histoire De Mme. Tasco.ape" WAVE
TRACK 01 AUDIO
TITLE "Trio"
PERFORMER "Joelle Leandre's Canvas Trio"
INDEX 01 00:00:00
TRACK 02 AUDIO
TITLE "Waspgame"
PERFORMER "Joelle Leandre's Canvas Trio"
INDEX 01 03:49:62
TRACK 03 AUDIO
TITLE "Shakuachi # 2"
PERFORMER "Joelle Leandre's Canvas Trio"
INDEX 00 05:25:57
INDEX 01 05:25:62
TRACK 04 AUDIO
TITLE "L'Histoire de Mme. Tasco"
PERFORMER "Joelle Leandre's Canvas Trio"
INDEX 00 10:58:59
INDEX 01 10:58:62
INDEX 02 16:16:73
INDEX 03 20:56:63
INDEX 04 25:46:66
INDEX 05 29:55:67
TRACK 05 AUDIO
TITLE "To Day and to Morrow"
PERFORMER "Joelle Leandre's Canvas Trio"
INDEX 01 31:58:62
TRACK 06 AUDIO
TITLE "L'ame profonde"
PERFORMER "Joelle Leandre's Canvas Trio"
INDEX 01 35:33:62
TRACK 07 AUDIO
TITLE "Sag mir warum"
PERFORMER "Joelle Leandre's Canvas Trio"
INDEX 01 39:58:62
 
Об альбоме
This recording of a number of primarily solo pieces by reclusive Italian composer Giacinto Scelsi exhibits a level of such unbridled and curious passion that is rare in this twilight of academic and ordered music. Though these pieces are by no means 'easy' or 'accessible,' the inextricable relationship of instrumentalist to her instrument that he has achieved repeatedly is nowhere more manifest than here. The first track, the solo bass version of the piece Maknongan (which is reorchestrated for both bass voice solo and bass tuba solo later in the recording), in which bassist Joelle Leandre utters guttural screams periodically, captures an enormously visceral anquish through implied counterpoints in the juxtaposition of wildly different timbral material. The CD's namesake track, Okanagon, for harp, double bass, & tam tam, exhibits none of the placid sonic aspects one might expect from such an ensemble. It juxtaposes an intermittent and jarring tolling on all instruments with a much more intimate knocking on the body of the double bass, creating a profound meditative ambivalence. The performances on this recording are not to be topped. A number of the performers were close collaborators with Scelsi himself before he died in 1988, and one can detect quite clearly the very physical, gestural nature of Scelsi's music in their realizations. The cd is altogether an amazing journey through Scelsi's unique and strange spiritual world. Dan Mohr
По всем вопросам пишите личное сообщение пользователю M0p94ok.
17:20
191
Нет комментариев. Ваш будет первым!