Вы используете незарегистрированную версию компонента "Вкладки"!

Поиск

(Free Jazz, Avant-Garde) Anthony Braxton & George Lewis - Donaueschingen (Duo) 1976 {Hat Hut Rec. hat ART CD 6150, Switzerland} - 1994, APE (image+.cue) lossless

(Free Jazz, Avant-Garde) Anthony Braxton & George Lewis - Donaueschingen (Duo) 1976 {Hat Hut Rec. hat ART CD 6150, Switzerland} - 1994, APE (image+.cue) lossless
Треклист:
Anthony Braxton & George Lewis - Donaueschingen (Duo) 1976
Жанр: Free Jazz, Avant-Garde
Страна-производитель диска: Switzerland
Год издания диска: 1994
Издатель (лейбл): Hat Hut Records
Номер по каталогу: hat ART CD 6150
Аудио кодек: APE (*.ape)
Тип рипа: image+.cue
Битрейт аудио: lossless
Продолжительность: 00:44:46
Источник (релизер): basa005
Наличие сканов в содержимом раздачи: да
Треклист:
1. Fred's Garden - 73 Degrees Kelvin - PN-445-WNK - Duet 1
2. Fred's Garden - 73 Degrees Kelvin - PN-445-WNK - Duet 1
(The division into two parts is for convenience only.)
3. Donna Lee (by Charlie Parker)
Recorded: October 23, 1976
Personnel:
Anthony Braxton - alto saxophone, sopranino, clarinet, contrabass clarinet, soprano clarinet, flutes & contrabass saxophone
George Lewis - trombone
 
Лог создания рипа (EAC Log)
Exact Audio Copy V1.0 beta 2 from 29. April 2011
EAC extraction logfile from 30. September 2011, 16:47
Anthony Braxton and George Lewis / Donauschingen (Duo) 1976
Used drive : TSSTcorpCDDVDW SE-S204N Adapter: 2 ID: 0
Read mode : Secure
Utilize accurate stream : Yes
Defeat audio cache : Yes
Make use of C2 pointers : No
Read offset correction : 6
Overread into Lead-In and Lead-Out : No
Fill up missing offset samples with silence : Yes
Delete leading and trailing silent blocks : No
Null samples used in CRC calculations : No
Used interface : Native Win32 interface for Win NT & 2000
Used output format : Internal WAV Routines
Sample format : 44.100 Hz; 16 Bit; Stereo
TOC of the extracted CD
Track | Start | Length | Start sector | End sector
---------------------------------------------------------
1 | 0:00.00 | 18:53.62 | 0 | 85036
2 | 18:53.62 | 22:27.13 | 85037 | 186074
3 | 41:21.00 | 3:26.00 | 186075 | 201524
Range status and errors
Selected range
Filename C:\avaxhome\Anthony Braxton and George Lewis - Donauschingen (Duo) 1976.wav
Peak level 90.1 %
Extraction speed 6.6 X
Range quality 100.0 %
Copy CRC 769367F0
Copy OK
No errors occurred
AccurateRip summary
Track 1 cannot be verified as accurate (confidence 1) [A9301DEB], AccurateRip returned [8650D4C0] (AR v2)
Track 2 cannot be verified as accurate (confidence 1) [A946FC83], AccurateRip returned [F1B32668] (AR v2)
Track 3 cannot be verified as accurate (confidence 1) [AABA02B7], AccurateRip returned [9A31326E] (AR v2)
No tracks could be verified as accurate
You may have a different pressing from the one(s) in the database
End of status report
==== Log checksum 692A598DCF0D7E711B0CBA8CEE52FA63488D1D60F28E811A4E05804751F0736B ====
 
Содержание индексной карты (.CUE)
REM GENRE Jazz
REM DISCID 1D0A7F03
REM COMMENT "ExactAudioCopy v1.0b2"
PERFORMER "Anthony Braxton and George Lewis"
TITLE "Donauschingen (Duo) 1976"
FILE "Anthony Braxton & George Lewis - Donauschingen (Duo) 1976.APE" WAVE
TRACK 01 AUDIO
TITLE "Fred's Garden - 73 Degrees Kelvin - PN-445-WNK - Duet 1"
PERFORMER "Anthony Braxton and George Lewis"
INDEX 01 00:00:00
TRACK 02 AUDIO
TITLE "Fred's Garden - 73 Degrees Kelvin - PN-445-WNK - Duet 1"
PERFORMER "Anthony Braxton and George Lewis"
INDEX 01 18:53:62
TRACK 03 AUDIO
TITLE "Donna Lee"
PERFORMER "Anthony Braxton and George Lewis"
INDEX 01 41:21:00
 
Info
This Cd documents a historic meeting between two creative music legends, Anthony Braxton and George Lewis. The concert was recorded on October 23, 1976. The Cd, besides providing the listener with the consistently brilliant musical interplay between Braxton and Lewis, is also extremely diverse. Braxton's compositions are featured (Comp. 6f and Comp. 64) as is a wonderful rendition of Donna Lee, a standard that has been recorded by Braxton before. In sum, by listening to this Cd, people can expand their horizons while hearing the entire history of Jazz in the music of these masters.
 
Back
Any questions -> support@pro-jazz.com. По всем вопросам пишите -> support@pro-jazz.com
17:18
186
Нет комментариев. Ваш будет первым!