Поиск

(Avant-Garde Jazz / Contemporary Jazz) [CD] Grünen (Grunen, Achim Kaufmann, Robert Landfermann, Christian Lillinger) - Pith and Twig - 2014, FLAC (tracks+.cue), lossless

(Avant-Garde Jazz / Contemporary Jazz) [CD] Grünen (Grunen, Achim Kaufmann, Robert Landfermann, Christian Lillinger) - Pith and Twig - 2014, FLAC (tracks+.cue), lossless
Grünen - Pith and Twig
Жанр: Avant-Garde Jazz / Contemporary Jazz
Носитель: CD
Страна-производитель диска (релиза): Portugal
Год издания: 2014
Издатель (лейбл): Clean Feed
Номер по каталогу: CF311CD
Аудиокодек: FLAC (*.flac)
Тип рипа: tracks+.cue
Битрейт аудио: lossless
Продолжительность: 00:56:09
Источник (релизер): what.cd / спасибо 6060842
Наличие сканов в содержимом раздачи: нет
Треклист:
1. Präsenz - Zeichenz (01:20)
2. Toquesenh (03:31)
3. Foliage Misconstrued (17:37)
4. Fsinah (06:10)
5. Chitin (04:48)
6. Mobiliar I - Mooswerdung (10:07)
7. Mazeem (03:30)
8. Corybant (04:19)
9. Schmach (04:43)
Доп. информация:
Musicians:
Achim Kaufmann - piano
Robert Landfermann - bass
Christian Lillinger - drums
Recorded at Studio Loft Cologne, Köln, October 2012 and May 2013
Tracks 3 & 6 recorded live at the Loft, April 22, 2012
Grünen - Pith and Twig cleanfeed-records.com
Achim Kaufmann Official Site
Achim Kaufmann from Wikipedia, the free encyclopedia
Robert Landfermann Official Site
Robert Landfermann from Wikipedia, the free encyclopedia
 
... photo ...

 
... review ...
No, the piano jazz trio format is far from being at an end, and here is one more example of that, one of the best to boot. German players Achim Kaufmann, Robert Landfermann and Christian Lillinger show us that the traditional combination of a grand piano, a double bass and a drumset can adopt experimental configurations and explore new situations. When the pianist isn’t the leader of the band – in Grünen, no one is – it could even be problematic to call it a piano trio. The usual hierarchy of the instruments dissolves, and the functions of the three musicians change radically. There’s no soloist and there’s no rhythm section which means everybody solos and everybody supports the others. And when you have three virtuosos with an eccentric, or even punkish, anti-virtuosic approach to the music, anything can happen: lots of tension and lyricism, powerful playing and deconstructions en miniature, crazy flights and rigorous organization of sounds. Prepare yourself (again: “Pith and Twig” is Grünen's second opus) to be surprised.
~ cleanfeed-records.com
 
Лог создания рипа
X Lossless Decoder version 20141129 (148.1)
XLD extraction logfile from 2015-02-09 23:41:29 +0300
Grünen / Pith and Twig
Used drive : HL-DT-ST DVDRW GX30N (revision RP09)
Media type : Pressed CD
Ripper mode : XLD Secure Ripper
Disable audio cache : OK for the drive with a cache less than 1375KiB
Make use of C2 pointers : NO
Read offset correction : 6
Max retry count : 10000
Gap status : Analyzed, Appended (except HTOA)
TOC of the extracted CD
Track | Start | Length | Start sector | End sector
---------------------------------------------------------
1 | 00:00:00 | 01:20:36 | 0 | 6035
2 | 01:20:36 | 03:31:37 | 6036 | 21897
3 | 04:51:73 | 17:37:69 | 21898 | 101241
4 | 22:29:67 | 06:10:25 | 101242 | 129016
5 | 28:40:17 | 04:48:12 | 129017 | 150628
6 | 33:28:29 | 10:07:27 | 150629 | 196180
7 | 43:35:56 | 03:30:49 | 196181 | 211979
8 | 47:06:30 | 04:19:06 | 211980 | 231410
9 | 51:25:36 | 04:43:55 | 231411 | 252690
AccurateRip Summary
Disc not found in AccurateRip DB.
All Tracks
Album gain : -2.95 dB
Peak : 0.962738
Statistics
Read error : 0
Jitter error (maybe fixed) : 0
Retry sector count : 0
Damaged sector count : 0
Track 01
Filename : /Users/Shared/Grabbed/Grunen/2014 - Pith and Twig/01 - Prasenz - Zeichenz.flac
Pre-gap length : 00:02:00
Track gain : -0.11 dB
Peak : 0.941010
CRC32 hash (test run) : 0B509039
CRC32 hash : 0B509039
CRC32 hash (skip zero) : 80BC4782
AccurateRip v1 signature : FBF5AA77
AccurateRip v2 signature : FDF56A5F
->Track not present in AccurateRip database.
Statistics
Read error : 0
Jitter error (maybe fixed) : 0
Retry sector count : 0
Damaged sector count : 0
Track 02
Filename : /Users/Shared/Grabbed/Grunen/2014 - Pith and Twig/02 - Toquesenh.flac
Track gain : -2.02 dB
Peak : 0.962433
CRC32 hash (test run) : AA3D8796
CRC32 hash : AA3D8796
CRC32 hash (skip zero) : 4A960791
AccurateRip v1 signature : CB424446
AccurateRip v2 signature : 93093527
->Track not present in AccurateRip database.
Statistics
Read error : 0
Jitter error (maybe fixed) : 0
Retry sector count : 0
Damaged sector count : 0
Track 03
Filename : /Users/Shared/Grabbed/Grunen/2014 - Pith and Twig/03 - Foliage Misconstrued.flac
Track gain : -4.05 dB
Peak : 0.962433
CRC32 hash (test run) : B7CA9F96
CRC32 hash : B7CA9F96
CRC32 hash (skip zero) : 0D11CB2C
AccurateRip v1 signature : F726B410
AccurateRip v2 signature : F4EC45B1
->Track not present in AccurateRip database.
Statistics
Read error : 0
Jitter error (maybe fixed) : 0
Retry sector count : 0
Damaged sector count : 0
Track 04
Filename : /Users/Shared/Grabbed/Grunen/2014 - Pith and Twig/04 - Fsinah.flac
Track gain : -3.37 dB
Peak : 0.962494
CRC32 hash (test run) : CC47A3E0
CRC32 hash : CC47A3E0
CRC32 hash (skip zero) : 30E76779
AccurateRip v1 signature : 30CC3FD3
AccurateRip v2 signature : 6F9F9235
->Track not present in AccurateRip database.
Statistics
Read error : 0
Jitter error (maybe fixed) : 0
Retry sector count : 0
Damaged sector count : 0
Track 05
Filename : /Users/Shared/Grabbed/Grunen/2014 - Pith and Twig/05 - Chitin.flac
Track gain : 2.01 dB
Peak : 0.962738
CRC32 hash (test run) : 19A49B27
CRC32 hash : 19A49B27
CRC32 hash (skip zero) : 3C08F7F3
AccurateRip v1 signature : 1BAAD892
AccurateRip v2 signature : FFBE3B7D
->Track not present in AccurateRip database.
Statistics
Read error : 0
Jitter error (maybe fixed) : 0
Retry sector count : 0
Damaged sector count : 0
Track 06
Filename : /Users/Shared/Grabbed/Grunen/2014 - Pith and Twig/06 - Mobiliar I - Mooswerdung.flac
Track gain : -2.53 dB
Peak : 0.962494
CRC32 hash (test run) : 7C39F6AD
CRC32 hash : 7C39F6AD
CRC32 hash (skip zero) : DA7DEC6C
AccurateRip v1 signature : 2AF08B22
AccurateRip v2 signature : 3001754C
->Track not present in AccurateRip database.
Statistics
Read error : 0
Jitter error (maybe fixed) : 0
Retry sector count : 0
Damaged sector count : 0
Track 07
Filename : /Users/Shared/Grabbed/Grunen/2014 - Pith and Twig/07 - Mazeem.flac
Track gain : -1.04 dB
Peak : 0.962372
CRC32 hash (test run) : 04366C4B
CRC32 hash : 04366C4B
CRC32 hash (skip zero) : 03DEBBFE
AccurateRip v1 signature : 342C632B
AccurateRip v2 signature : 1DF49D32
->Track not present in AccurateRip database.
Statistics
Read error : 0
Jitter error (maybe fixed) : 0
Retry sector count : 0
Damaged sector count : 0
Track 08
Filename : /Users/Shared/Grabbed/Grunen/2014 - Pith and Twig/08 - Corybant.flac
Track gain : -2.34 dB
Peak : 0.962341
CRC32 hash (test run) : 8D15AAE7
CRC32 hash : 8D15AAE7
CRC32 hash (skip zero) : 8F413717
AccurateRip v1 signature : 7B112F5D
AccurateRip v2 signature : 4CEE784E
->Track not present in AccurateRip database.
Statistics
Read error : 0
Jitter error (maybe fixed) : 0
Retry sector count : 0
Damaged sector count : 0
Track 09
Filename : /Users/Shared/Grabbed/Grunen/2014 - Pith and Twig/09 - Schmach.flac
Track gain : -2.00 dB
Peak : 0.962128
CRC32 hash (test run) : FC1AE571
CRC32 hash : FC1AE571
CRC32 hash (skip zero) : C2AC05BD
AccurateRip v1 signature : 4419E7F7
AccurateRip v2 signature : D2728FAD
->Track not present in AccurateRip database.
Statistics
Read error : 0
Jitter error (maybe fixed) : 0
Retry sector count : 0
Damaged sector count : 0
No errors occurred
End of status report
-----BEGIN XLD SIGNATURE-----
i9K0eF41FY1K66aDgZCoBhotJ1Y9hj9aMBAzhB68OrTtLTt.zBOGmFmMIl2ZBy6aa8JEqE_4z0Bj7wTQVu9ZX6h1qr_OcIo6M0XO2p8
-----END XLD SIGNATURE-----
 
Содержание индексной карты (.CUE)
TITLE "Pith and Twig"
PERFORMER "Grunen"
REM GENRE "Free Jazz"
REM DATE "2014"
REM DISCNUMBER 1
REM TOTALDISCS 1
REM DISCID 690D2909
REM REPLAYGAIN_ALBUM_GAIN -2.95 dB
REM REPLAYGAIN_ALBUM_PEAK 0.962738
REM COMPILATION TRUE
FILE "01 - Prasenz - Zeichenz.flac" WAVE
TRACK 01 AUDIO
TITLE "Prasenz - Zeichenz"
PERFORMER "Grunen"
ISRC PTNF11409104
REM REPLAYGAIN_TRACK_GAIN -0.11 dB
REM REPLAYGAIN_TRACK_PEAK 0.941010
INDEX 01 00:00:00
FILE "02 - Toquesenh.flac" WAVE
TRACK 02 AUDIO
TITLE "Toquesenh"
PERFORMER "Grunen"
ISRC PTNF11409105
REM REPLAYGAIN_TRACK_GAIN -2.02 dB
REM REPLAYGAIN_TRACK_PEAK 0.962433
INDEX 01 00:00:00
FILE "03 - Foliage Misconstrued.flac" WAVE
TRACK 03 AUDIO
TITLE "Foliage Misconstrued"
PERFORMER "Grunen"
ISRC PTNF11409106
REM REPLAYGAIN_TRACK_GAIN -4.05 dB
REM REPLAYGAIN_TRACK_PEAK 0.962433
INDEX 01 00:00:00
FILE "04 - Fsinah.flac" WAVE
TRACK 04 AUDIO
TITLE "Fsinah"
PERFORMER "Grunen"
ISRC PTNF11409107
REM REPLAYGAIN_TRACK_GAIN -3.37 dB
REM REPLAYGAIN_TRACK_PEAK 0.962494
INDEX 01 00:00:00
FILE "05 - Chitin.flac" WAVE
TRACK 05 AUDIO
TITLE "Chitin"
PERFORMER "Grunen"
ISRC PTNF11409108
REM REPLAYGAIN_TRACK_GAIN 2.01 dB
REM REPLAYGAIN_TRACK_PEAK 0.962738
INDEX 01 00:00:00
FILE "06 - Mobiliar I - Mooswerdung.flac" WAVE
TRACK 06 AUDIO
TITLE "Mobiliar I - Mooswerdung"
PERFORMER "Grunen"
ISRC PTNF11409109
REM REPLAYGAIN_TRACK_GAIN -2.53 dB
REM REPLAYGAIN_TRACK_PEAK 0.962494
INDEX 01 00:00:00
FILE "07 - Mazeem.flac" WAVE
TRACK 07 AUDIO
TITLE "Mazeem"
PERFORMER "Grunen"
ISRC PTNF11409110
REM REPLAYGAIN_TRACK_GAIN -1.04 dB
REM REPLAYGAIN_TRACK_PEAK 0.962372
INDEX 01 00:00:00
FILE "08 - Corybant.flac" WAVE
TRACK 08 AUDIO
TITLE "Corybant"
PERFORMER "Grunen"
ISRC PTNF11409111
REM REPLAYGAIN_TRACK_GAIN -2.34 dB
REM REPLAYGAIN_TRACK_PEAK 0.962341
INDEX 01 00:00:00
FILE "09 - Schmach.flac" WAVE
TRACK 09 AUDIO
TITLE "Schmach"
PERFORMER "Grunen"
ISRC PTNF11409112
REM REPLAYGAIN_TRACK_GAIN -2.00 dB
REM REPLAYGAIN_TRACK_PEAK 0.962128
INDEX 01 00:00:00
09:16
329
Нет комментариев. Ваш будет первым!