Вы используете незарегистрированную версию компонента "Вкладки"!

Поиск

(Free Jazz, Post-Bop) [CD] Steve Lacy - 5 x Monk 5 x Lacy - 1997, FLAC (tracks+.cue), lossless

(Free Jazz, Post-Bop) [CD] Steve Lacy - 5 x Monk 5 x Lacy - 1997, FLAC (tracks+.cue), lossless
Треклист:
Steve Lacy - 5 x Monk 5 x Lacy
Жанр: Free Jazz, Post-Bop
Носитель: CD
Страна-производитель диска (релиза): Швеция
Год издания: 1997
Издатель (лейбл): Silkheart
Номер по каталогу: SHCD 144
Аудиокодек: FLAC (*.flac)
Тип рипа: tracks+.cue
Битрейт аудио: lossless
Продолжительность: 45:10
Источник (релизер): nertwebber (what)
Наличие сканов в содержимом раздачи: сетевые
Треклист:
01. Shuffle Boil (Monk) - 3:48
02. Eronel (Monk) - 3:50
03. Evidence (Monk) - 3:38
04. Pannonica (Monk) - 5:24
05. Who Knows (Monk) - 3:12
06. The Crust (Lacy) - 4:31
07. Blues for Aida (Lacy) - 5:51
08. Revenue (Lacy) - 5:28
09. Naked Lunch (Lacy) - 4:13
10. Deadline (Lacy) - 5:15
Состав:
Steve Lacy - soprano saxophone
Recorded live in the Horsalen of the Stockholm Kulturhuset, Sweden on March 26, 1994.
 
Лог создания рипа
Exact Audio Copy V1.0 beta 3 from 29. August 2011
EAC extraction logfile from 10. February 2015, 17:00
Steve Lacy / 5 x Monk 5 x Lacy
Used drive : ATAPI iHAS124 W Adapter: 0 ID: 0
Read mode : Secure
Utilize accurate stream : Yes
Defeat audio cache : Yes
Make use of C2 pointers : No
Read offset correction : 48
Overread into Lead-In and Lead-Out : No
Fill up missing offset samples with silence : Yes
Delete leading and trailing silent blocks : No
Null samples used in CRC calculations : Yes
Used interface : Native Win32 interface for Win NT & 2000
Gap handling : Appended to previous track
Used output format : User Defined Encoder
Selected bitrate : 1024 kBit/s
Quality : High
Add ID3 tag : No
Command line compressor : C:\Program Files (x86)\Exact Audio Copy\FLAC\FLAC.EXE
Additional command line options : -8 -V -T "ARTIST=%artist%" -T "TITLE=%title%" -T "ALBUM=%albumtitle%" -T "DATE=%year%" -T "TRACKNUMBER=%tracknr%" -T "GENRE=%genre%" -T "COMMENT=%comment%" -T "BAND=%albuminterpret%" -T "ALBUMARTIST=%albuminterpret%" -T "COMPOSER=%composer%" %haslyrics%--tag-from-file=LYRICS="%lyricsfile%"%haslyrics% -T "DISCNUMBER=%cdnumber%" -T "TOTALDISCS=%totalcds%" -T "TOTALTRACKS=%numtracks%" %hascover%--picture="%coverfile%"%hascover% %source% -o %dest%
TOC of the extracted CD
Track | Start | Length | Start sector | End sector
---------------------------------------------------------
1 | 0:00.00 | 3:48.12 | 0 | 17111
2 | 3:48.12 | 3:49.45 | 17112 | 34331
3 | 7:37.57 | 3:37.50 | 34332 | 50656
4 | 11:15.32 | 5:24.08 | 50657 | 74964
5 | 16:39.40 | 3:12.07 | 74965 | 89371
6 | 19:51.47 | 4:31.15 | 89372 | 109711
7 | 24:22.62 | 5:51.18 | 109712 | 136054
8 | 30:14.05 | 5:27.72 | 136055 | 160651
9 | 35:42.02 | 4:13.10 | 160652 | 179636
10 | 39:55.12 | 5:15.35 | 179637 | 203296
Track 1
Filename E:\EAC\Steve Lacy - - 5 x Monk 5 x Lacy\01 - Shuffle Boil.wav
Pre-gap length 0:00:02.00
Peak level 60.6 %
Extraction speed 4.4 X
Track quality 100.0 %
Test CRC 30A8BE8D
Copy CRC 30A8BE8D
Cannot be verified as accurate (confidence 2) [B58F22DF], AccurateRip returned [DD68F2AF] (AR v2)
Copy OK
Track 2
Filename E:\EAC\Steve Lacy - - 5 x Monk 5 x Lacy\02 - Eronel.wav
Peak level 49.0 %
Extraction speed 5.0 X
Track quality 100.0 %
Test CRC 68426307
Copy CRC 68426307
Cannot be verified as accurate (confidence 2) [D5E5FE47], AccurateRip returned [1E98B44E] (AR v2)
Copy OK
Track 3
Filename E:\EAC\Steve Lacy - - 5 x Monk 5 x Lacy\03 - Evidence.wav
Peak level 61.4 %
Extraction speed 5.4 X
Track quality 100.0 %
Test CRC DFC26310
Copy CRC DFC26310
Cannot be verified as accurate (confidence 2) [840EBB73], AccurateRip returned [354ACD0D] (AR v2)
Copy OK
Track 4
Filename E:\EAC\Steve Lacy - - 5 x Monk 5 x Lacy\04 - Pannonica.wav
Peak level 87.4 %
Extraction speed 6.1 X
Track quality 100.0 %
Test CRC ED376DFE
Copy CRC ED376DFE
Cannot be verified as accurate (confidence 2) [A08D6F52], AccurateRip returned [FB4DA3AA] (AR v2)
Copy OK
Track 5
Filename E:\EAC\Steve Lacy - - 5 x Monk 5 x Lacy\05 - Who Knows.wav
Peak level 62.5 %
Extraction speed 6.1 X
Track quality 100.0 %
Test CRC CBC829D8
Copy CRC CBC829D8
Cannot be verified as accurate (confidence 2) [7A168F8D], AccurateRip returned [51CE27E6] (AR v2)
Copy OK
Track 6
Filename E:\EAC\Steve Lacy - - 5 x Monk 5 x Lacy\06 - The Crust.wav
Peak level 92.6 %
Extraction speed 6.8 X
Track quality 100.0 %
Test CRC C9C8BA5D
Copy CRC C9C8BA5D
Cannot be verified as accurate (confidence 2) [1FDA4CCD], AccurateRip returned [EAC8EACF] (AR v2)
Copy OK
Track 7
Filename E:\EAC\Steve Lacy - - 5 x Monk 5 x Lacy\07 - Blues for Aida.wav
Peak level 92.4 %
Extraction speed 5.5 X
Track quality 99.9 %
Test CRC 80D13B87
Copy CRC 80D13B87
Cannot be verified as accurate (confidence 2) [3242EDA4], AccurateRip returned [8EAAD1C3] (AR v2)
Copy OK
Track 8
Filename E:\EAC\Steve Lacy - - 5 x Monk 5 x Lacy\08 - Revenue.wav
Peak level 89.5 %
Extraction speed 7.8 X
Track quality 100.0 %
Test CRC 34CCDCAF
Copy CRC 34CCDCAF
Cannot be verified as accurate (confidence 2) [4218012F], AccurateRip returned [07B6E46B] (AR v2)
Copy OK
Track 9
Filename E:\EAC\Steve Lacy - - 5 x Monk 5 x Lacy\09 - Naked Lunch.wav
Peak level 85.5 %
Extraction speed 7.9 X
Track quality 100.0 %
Test CRC ADEC6213
Copy CRC ADEC6213
Cannot be verified as accurate (confidence 2) [54C0B37A], AccurateRip returned [EAF899D5] (AR v2)
Copy OK
Track 10
Filename E:\EAC\Steve Lacy - - 5 x Monk 5 x Lacy\10 - Deadline.wav
Peak level 86.3 %
Extraction speed 8.5 X
Track quality 100.0 %
Test CRC 3A984D3A
Copy CRC 3A984D3A
Cannot be verified as accurate (confidence 2) [3A2716F8], AccurateRip returned [0A481361] (AR v2)
Copy OK
No tracks could be verified as accurate
You may have a different pressing from the one(s) in the database
No errors occurred
End of status report
==== Log checksum 9A0184E8D8F3E0D3509E959D2661E08E0CB32B62CF146DDE4B51233A317BDBA2 ====
 
Содержание индексной карты (.CUE)
REM GENRE Jazz
REM DATE 1997
REM DISCID 7C0A960A
REM COMMENT "ExactAudioCopy v1.0b3"
PERFORMER "Steve Lacy"
TITLE "5 x Monk 5 x Lacy"
FILE "01 - Shuffle Boil.wav" WAVE
TRACK 01 AUDIO
TITLE "Shuffle Boil"
PERFORMER "Steve Lacy"
INDEX 01 00:00:00
FILE "02 - Eronel.wav" WAVE
TRACK 02 AUDIO
TITLE "Eronel"
PERFORMER "Steve Lacy"
INDEX 01 00:00:00
FILE "03 - Evidence.wav" WAVE
TRACK 03 AUDIO
TITLE "Evidence"
PERFORMER "Steve Lacy"
INDEX 01 00:00:00
FILE "04 - Pannonica.wav" WAVE
TRACK 04 AUDIO
TITLE "Pannonica"
PERFORMER "Steve Lacy"
INDEX 01 00:00:00
FILE "05 - Who Knows.wav" WAVE
TRACK 05 AUDIO
TITLE "Who Knows"
PERFORMER "Steve Lacy"
INDEX 01 00:00:00
FILE "06 - The Crust.wav" WAVE
TRACK 06 AUDIO
TITLE "The Crust"
PERFORMER "Steve Lacy"
INDEX 01 00:00:00
FILE "07 - Blues for Aida.wav" WAVE
TRACK 07 AUDIO
TITLE "Blues for Aida"
PERFORMER "Steve Lacy"
INDEX 01 00:00:00
FILE "08 - Revenue.wav" WAVE
TRACK 08 AUDIO
TITLE "Revenue"
PERFORMER "Steve Lacy"
INDEX 01 00:00:00
FILE "09 - Naked Lunch.wav" WAVE
TRACK 09 AUDIO
TITLE "Naked Lunch"
PERFORMER "Steve Lacy"
INDEX 01 00:00:00
FILE "10 - Deadline.wav" WAVE
TRACK 10 AUDIO
TITLE "Deadline"
PERFORMER "Steve Lacy"
INDEX 01 00:00:00
 
Отчет CUETools
[CUETools log; Date: 10.02.2015 19:49:09; Version: 2.1.5]
[CTDB TOCID: TlEX.vbf_0AZCJkSn8iArdYyseY-] found.
Track | CTDB Status
1 | (2/2) Accurately ripped
2 | (2/2) Accurately ripped
3 | (2/2) Accurately ripped
4 | (2/2) Accurately ripped
5 | (2/2) Accurately ripped
6 | (2/2) Accurately ripped
7 | (2/2) Accurately ripped
8 | (2/2) Accurately ripped
9 | (2/2) Accurately ripped
10 | (2/2) Accurately ripped
[AccurateRip ID: 00101c2f-0083026b-7c0a960a] found.
Track [ CRC | V2 ] Status
01 [1fc45c40|b58f22df] (0+0/2) No match
02 [aca59e05|d5e5fe47] (0+0/2) No match
03 [19a35433|840ebb73] (0+0/2) No match
04 [13286825|a08d6f52] (0+0/2) No match
05 [b938bd92|7a168f8d] (0+0/2) No match
06 [1ebf47ed|1fda4ccd] (0+0/2) No match
07 [e3de5e83|3242eda4] (0+0/2) No match
08 [da833928|4218012f] (0+0/2) No match
09 [3e21b1df|54c0b37a] (0+0/2) No match
10 [e8dd6587|3a2716f8] (0+0/2) No match
Offsetted by 664:
01 [40ec8699] (0/2) No match (V2 was not tested)
02 [fce5ce49] (0/2) No match (V2 was not tested)
03 [da7c476f] (0/2) No match (V2 was not tested)
04 [8e091e7c] (0/2) No match (V2 was not tested)
05 [a22bd871] (0/2) No match (V2 was not tested)
06 [3c6f6ea8] (0/2) No match (V2 was not tested)
07 [f6eddaa9] (0/2) No match (V2 was not tested)
08 [caeff912] (0/2) No match (V2 was not tested)
09 [a4fff1ac] (0/2) No match (V2 was not tested)
10 [5a4851ee] (0/2) No match (V2 was not tested)
Track Peak [ CRC32 ] [W/O NULL] [ LOG ]
-- 92,6 [340DBD3A] [24E83CEF]
01 60,6 [30A8BE8D] [A4ACF221] CRC32
02 49,0 [68426307] [88FD18BE] CRC32
03 61,4 [DFC26310] [F4363743] CRC32
04 87,4 [ED376DFE] [7B30B4AB] CRC32
05 62,5 [CBC829D8] [36A99543] CRC32
06 92,6 [C9C8BA5D] [CBF2909A] CRC32
07 92,4 [80D13B87] [B1D9A8D7] CRC32
08 89,5 [34CCDCAF] [D25E9B19] CRC32
09 85,5 [ADEC6213] [CBE82E0F] CRC32
10 86,3 [3A984D3A] [FC61883C] CRC32
 
Review by Scott Yanow
No matter how many times Steve Lacy records the music of Thelonious Monk, his enthusiasm always makes it sound as if he is exploring the themes for the first time, although his mastery of Monk's music gives away the truth. Ever since the mid-1950s, the innovative soprano saxophonist has returned to Monk's pieces on a fairly regular basis. For this Stockholm concert, ana unaccompanied Lacy starts out with concise versions of five of Monk's numbers; only "Pannonica" exceeds four minutes. His interpretations are so self-sufficient that one does not miss the other instruments, although it is quite easy to "hear" the bass and drums behind the soprano. The remaining five performances are all Lacy originals, and although not overtly Monkish, his use of the themes as the basis for his improvising, thoughtful solos (often sounding as if he is thinking aloud), and highly original yet logical evolution of his improvisations (which often feature an inventive use of repetition) make the results continually fascinating. Highly recommended.
По всем вопросам пишите личное сообщение пользователю M0p94ok.
09:16
316
Нет комментариев. Ваш будет первым!