Вы используете незарегистрированную версию компонента "Вкладки"!

Поиск

(Avant-Garde Jazz) [CD] Pharoah Sanders - Tauhid {1966} - 1993, FLAC (image+.cue), lossless

(Avant-Garde Jazz) [CD] Pharoah Sanders - Tauhid {1966} - 1993, FLAC (image+.cue), lossless
Треклист:
♦ Pharoah Sanders - Tauhid {1966} ♦
Жанр: Avant-Garde Jazz
Носитель: CD
Страна-производитель диска: USA
Год издания: 1993
Издатель (лейбл): MCA Records / GRP Records
Номер по каталогу: GRD 129
Аудиокодек: FLAC (*.flac)
Тип рипа: image+.cue
Битрейт аудио: lossless
Продолжительность: 00:34:27
Источник (релизер): Рип с диска.
Наличие сканов в содержимом раздачи: да
Треклист:
01. Upper Egypt & Lower Egypt [16:15]
02. Japan [03:24]
03. Aum / Venus / Capricorn Rising [14:47]
 
Лог создания рипа
Exact Audio Copy V1.0 beta 3 from 29. August 2011
EAC extraction logfile from 4. December 2013, 12:40
Pharoah Sanders / Tauhid
Used drive : Optiarc DVD RW AD-5200A Adapter: 0 ID: 0
Read mode : Secure
Utilize accurate stream : Yes
Defeat audio cache : Yes
Make use of C2 pointers : No
Read offset correction : 48
Overread into Lead-In and Lead-Out : No
Fill up missing offset samples with silence : Yes
Delete leading and trailing silent blocks : No
Null samples used in CRC calculations : Yes
Used interface : Native Win32 interface for Win NT & 2000
Used output format : User Defined Encoder
Selected bitrate : 128 kBit/s
Quality : High
Add ID3 tag : No
Command line compressor : C:\Program Files\Exact Audio Copy\Flac\flac.exe
Additional command line options : -V -8 -T "Genre=%genre%" -T "Artist=%artist%" -T "Title=%title%" -T "Album=%albumtitle%" -T "Date=%year%" -T "Tracknumber=%tracknr%" -T "Comment=%comment%" %source%
TOC of the extracted CD
Track | Start | Length | Start sector | End sector
---------------------------------------------------------
1 | 0:00.00 | 16:15.60 | 0 | 73184
2 | 16:15.60 | 3:24.35 | 73185 | 88519
3 | 19:40.20 | 14:47.07 | 88520 | 155051
Range status and errors
Selected range
Filename F:\1993.Pharoah Sanders - Tauhid\Pharoah Sanders - Tauhid.wav
Peak level 100.0 %
Extraction speed 3.3 X
Range quality 99.9 %
Test CRC 70EF800E
Copy CRC 70EF800E
Copy OK
No errors occurred
AccurateRip summary
Track 1 accurately ripped (confidence 3) [7B685BC6] (AR v1)
Track 2 accurately ripped (confidence 3) [D862ACBE] (AR v1)
Track 3 accurately ripped (confidence 3) [F211168A] (AR v1)
All tracks accurately ripped
End of status report
==== Log checksum D7548621477A36161590CD42F87C0988BE8D6145B5022E0BE84488C5CC4CF716 ====
 
Содержание индексной карты (.CUE)
REM GENRE Jazz
REM DATE 1993
REM DISCID 25081303
REM COMMENT "ExactAudioCopy v1.0b3"
PERFORMER "Pharoah Sanders"
TITLE "Tauhid"
FILE "Pharoah Sanders - Tauhid.flac" WAVE
TRACK 01 AUDIO
TITLE "Upper Egypt & Lower Egypt"
PERFORMER "Pharoah Sanders"
ISRC USMC16790673
INDEX 01 00:00:00
TRACK 02 AUDIO
TITLE "Japan"
PERFORMER "Pharoah Sanders"
ISRC USMC16752673
INDEX 00 16:13:62
INDEX 01 16:15:60
TRACK 03 AUDIO
TITLE "Aum / Venus / Capricorn Rising"
PERFORMER "Pharoah Sanders"
ISRC USMC16790674
INDEX 00 19:38:35
INDEX 01 19:40:20
 
Состав
Pharoah Sanders - ts, ss, piccolo, voc
Sonny Sharrock - g
Dave Burrell - p
Henry Grimes - b
Roger Blank - dr
Nat Bettis - perc.Recorded at the Van Gelder Studio, Engelwood Cliffs, New Jersey, 15/11/1966.
Any questions -> support@pro-jazz.com. По всем вопросам пишите -> support@pro-jazz.com
21:10
177
Нет комментариев. Ваш будет первым!