Вы используете незарегистрированную версию компонента "Вкладки"!

Поиск

(Avant-Garde Jazz / Free Jazz) [CD] Leo Cuypers (Willem Breuker, Arjen Gorter, Han Bennink) - Heavy Days Are Here Again - 2000, rec. 1981, FLAC (tracks+.cue), lossless

(Avant-Garde Jazz / Free Jazz) [CD] Leo Cuypers (Willem Breuker, Arjen Gorter, Han Bennink) - Heavy Days Are Here Again - 2000, rec. 1981, FLAC (tracks+.cue), lossless
Треклист:
Leo Cuypers - Heavy Days Are Here Again
Жанр: Avant-Garde Jazz / Free Jazz
Носитель: CD
Страна-производитель диска: USA
Год издания: 2000
Год записи: originally issued in 1981 on BVHAAST Records, BVHAAST 037
Издатель (лейбл): Atavistic
Номер по каталогу: UMS/ALP207CD / Unheard Music Series
Аудиокодек: FLAC (*.flac)
Тип рипа: tracks+.cue
Битрейт аудио: lossless
Продолжительность: 00:35:22
Источник (релизер): nnm, Джаз Клуб, 28 ноября, 2013 / спасибо mishka1981
Наличие сканов в содержимом раздачи: да
Треклист:
1. Happy Days (05:53)
2. Asdat de Olifantstand (05:25)
3. Misha (04:16)
4. Stefanus (02:51)
5. Be-Bach (06:58)
6. Blue Tango (04:38)
7. Couperin (05:17)
All compositions by Leo Cuypers
Доп. информация:
Musicians:
Leo Cuypers - piano
Willem Breuker - saxophone, B clarinet
Arjen Gorter - bass
Han Bennink - drums, C soprano saxophone, trombone
Recorded June 12th, 1981 MCR studio, Amstersfoort
Digital transfer at Studio Le Roy, Amsterdam, February 2000
Leo Cuypers - Heavy Days Are Here Again atavistic.com
Leo Cuypers from Wikipedia, the free encyclopedia
Willem Breuker from Wikipedia, the free encyclopedia
Arjen Gorter from Wikipedia, the free encyclopedia
Han Bennink Official Site
Han Bennink drummerworld.com
Han Bennink from Wikipedia, the free encyclopedia
 
... info ...
Leo Cuypers, pianist and composer from southern Holland, is one of the great unsung heroes of Dutch creative music - as a bandleader, solo pianist and member of the first incarnation of the Willem Breuker Kollektief. Heavy Days Are Here Again was a project that brought Bennink and Breuker (who made the first ICP record, New Acoustic Swing Duo, together as a twosome back in the '60s) back together after a somewhat fractious split, and reunited Cuypers with Breuker as well. The band toured, made a national TV appearance, then recorded this absolutely killing studio LP in 1981 for reedist Breuker's label, BVHAAST Records.
~ atavistic.com
 
Лог создания рипа
Exact Audio Copy V1.0 beta 1 from 15. November 2010
EAC extraction logfile from 27. November 2013, 15:19
Leo Cuypers / Heavy Days Are Here Again
Used drive : TSSTcorpCDDVDW TS-L633A Adapter: 3 ID: 0
Read mode : Secure
Utilize accurate stream : Yes
Defeat audio cache : Yes
Make use of C2 pointers : No
Read offset correction : 6
Overread into Lead-In and Lead-Out : No
Fill up missing offset samples with silence : Yes
Delete leading and trailing silent blocks : No
Null samples used in CRC calculations : Yes
Used interface : Installed external ASPI interface
Gap handling : Appended to previous track
Used output format : User Defined Encoder
Selected bitrate : 896 kBit/s
Quality : High
Add ID3 tag : No
Command line compressor : C:\Program Files\Exact Audio Copy\FLAC\FLAC.EXE
Additional command line options : -8 -V -T "ARTIST=%a" -T "TITLE=%t" -T "ALBUM=%g" -T "DATE=%y" -T "TRACKNUMBER=%n" -T "TOTALTRACKS=%x" -T "GENRE=%m" -T "ALBUMARTIST=%v" -T "ALBUM ARTIST=%v" -T "COMMENT=EAC Secure Mode, Test & Copy, AccurateRip, FLAC -8" %s
TOC of the extracted CD
Track | Start | Length | Start sector | End sector
---------------------------------------------------------
1 | 0:01.00 | 5:55.47 | 75 | 26746
2 | 5:56.47 | 5:28.41 | 26747 | 51387
3 | 11:25.13 | 4:19.08 | 51388 | 70820
4 | 15:44.21 | 2:54.29 | 70821 | 83899
5 | 18:38.50 | 7:01.51 | 83900 | 115525
6 | 25:40.26 | 4:41.43 | 115526 | 136643
7 | 30:21.69 | 5:17.61 | 136644 | 160479
Track 1
Filename C:\MY RIPS\01 - Happy Days.wav
Pre-gap length 0:00:03.00
Peak level 96.5 %
Extraction speed 1.0 X
Track quality 99.9 %
Test CRC 8686B340
Copy CRC 8686B340
Accurately ripped (confidence 2) [0C2D8E7A]
Copy OK
Track 2
Filename C:\MY RIPS\02 - Alsdat de Olifantstand.wav
Pre-gap length 0:00:02.41
Peak level 99.6 %
Extraction speed 1.2 X
Track quality 100.0 %
Test CRC 6595626E
Copy CRC 6595626E
Accurately ripped (confidence 2) [D658C8B3]
Copy OK
Track 3
Filename C:\MY RIPS\03 - Misha.wav
Pre-gap length 0:00:03.06
Peak level 87.0 %
Extraction speed 1.3 X
Track quality 100.0 %
Test CRC 1B5DAF0F
Copy CRC 1B5DAF0F
Accurately ripped (confidence 2) [8EC8C025]
Copy OK
Track 4
Filename C:\MY RIPS\04 - Stefanus.wav
Pre-gap length 0:00:02.58
Peak level 97.1 %
Extraction speed 1.3 X
Track quality 100.0 %
Test CRC D4B6E4D8
Copy CRC D4B6E4D8
Accurately ripped (confidence 2) [AA409631]
Copy OK
Track 5
Filename C:\MY RIPS\05 - Be-Bach.wav
Pre-gap length 0:00:02.46
Peak level 91.3 %
Extraction speed 1.5 X
Track quality 100.0 %
Test CRC B610A66F
Copy CRC B610A66F
Accurately ripped (confidence 2) [66568C81]
Copy OK
Track 6
Filename C:\MY RIPS\06 - Blue Tango.wav
Pre-gap length 0:00:03.07
Peak level 84.1 %
Extraction speed 1.2 X
Track quality 99.9 %
Test CRC 2A00EEA9
Copy CRC 2A00EEA9
Accurately ripped (confidence 2) [2394FCC2]
Copy OK
Track 7
Filename C:\MY RIPS\07 - Couperin.wav
Pre-gap length 0:00:02.46
Peak level 92.4 %
Extraction speed 1.3 X
Track quality 99.9 %
Test CRC 5B612342
Copy CRC 5B612342
Accurately ripped (confidence 2) [F1A60418]
Copy OK
All tracks accurately ripped
No errors occurred
End of status report
==== Log checksum 34B8BE97A03263A174B62A7B4095E2D74145D0E766B1C5C149BD7C8DCBD72229 ====
 
Содержание индексной карты (.CUE)
REM GENRE avantgarde
REM DATE 1981
REM DISCID 59085A07
REM COMMENT "ExactAudioCopy v1.0b1"
PERFORMER "Leo Cuypers"
TITLE "Heavy Days Are Here Again"
FILE "01 - Happy Days.wav" WAVE
TRACK 01 AUDIO
TITLE "Happy Days"
PERFORMER "Leo Cuypers"
PREGAP 00:01:00
INDEX 01 00:00:00
TRACK 02 AUDIO
TITLE "Alsdat de Olifantstand"
PERFORMER "Leo Cuypers"
INDEX 00 05:53:06
FILE "02 - Alsdat de Olifantstand.wav" WAVE
INDEX 01 00:00:00
TRACK 03 AUDIO
TITLE "Misha"
PERFORMER "Leo Cuypers"
INDEX 00 05:25:35
FILE "03 - Misha.wav" WAVE
INDEX 01 00:00:00
TRACK 04 AUDIO
TITLE "Stefanus"
PERFORMER "Leo Cuypers"
INDEX 00 04:16:25
FILE "04 - Stefanus.wav" WAVE
INDEX 01 00:00:00
TRACK 05 AUDIO
TITLE "Be-Bach"
PERFORMER "Leo Cuypers"
INDEX 00 02:51:58
FILE "05 - Be-Bach.wav" WAVE
INDEX 01 00:00:00
TRACK 06 AUDIO
TITLE "Blue Tango"
PERFORMER "Leo Cuypers"
INDEX 00 06:58:44
FILE "06 - Blue Tango.wav" WAVE
INDEX 01 00:00:00
TRACK 07 AUDIO
TITLE "Couperin"
PERFORMER "Leo Cuypers"
INDEX 00 04:38:72
FILE "07 - Couperin.wav" WAVE
INDEX 01 00:00:00
 
auCDtect Task Manager
-----------------------
DON'T MODIFY THIS FILE
-----------------------
PERFORMER: auCDtect Task Manager, ver. 1.5.1RC6 build 1.5.1.7
Copyright (c) 2008-2010 y-soft. All rights reserved
http://y-soft.org
ANALYZER: auCDtect: CD records authenticity detector, version 0.8.2
Copyright (c) 2004 Oleg Berngardt. All rights reserved.
Copyright (c) 2004 Alexander Djourik. All rights reserved.
FILE: 07 - Couperin.flac
Size: 31585269 Hash: 4074FB1AF7CFFDFE12ED76DC4F585343 Accuracy: -m0
Conclusion: CDDA 100%
Signature: D3247858C5E7FEC56B3634884D2D82290F7EEE92
FILE: 06 - Blue Tango.flac
Size: 25090573 Hash: 81D3C6A307BD1670D851146DB6592478 Accuracy: -m0
Conclusion: CDDA 100%
Signature: 779310CE897390F2C594B95F91C7427FFA0D1303
FILE: 05 - Be-Bach.flac
Size: 44178039 Hash: A44B196B43AAFA698CBDDFAD2DC44B21 Accuracy: -m0
Conclusion: CDDA 99%
Signature: ABAEA28716A8A00BA562188635C59E11C53F0F8A
FILE: 04 - Stefanus.flac
Size: 18929871 Hash: 2812564E1421E7680599D2384A4AEC9A Accuracy: -m0
Conclusion: CDDA 100%
Signature: 512D2CD0B569875AC00155211582B44380E2DE71
FILE: 03 - Misha.flac
Size: 23369270 Hash: 73C21DD4C665F2AE5D61D6A07209C357 Accuracy: -m0
Conclusion: CDDA 100%
Signature: 9E9B6E6A3C906B2AD6767FC54C6AB4A4606B29DF
FILE: 02 - Alsdat de Olifantstand.flac
Size: 34180185 Hash: 68FA76ECE2C20BCEA7A48C502AA07C5F Accuracy: -m0
Conclusion: CDDA 99%
Signature: 48863184B8280405BAD18F2DE86C4FA199E0A9F2
FILE: 01 - Happy Days.flac
Size: 40703276 Hash: 6D482F90B41D0ECF9E83102A4EB1F524 Accuracy: -m0
Conclusion: CDDA 100%
Signature: 9F2330E141616B71A04DF5212B2EA25437BCC157
... релизы с участием HAN BENNINK на трекере ...
По всем вопросам пишите личное сообщение пользователю M0p94ok.
21:09
209
Нет комментариев. Ваш будет первым!