Вы используете незарегистрированную версию компонента "Вкладки"!

Поиск

(Free Jazz) [CD] Kees Hazevoet (Kris Wanders, Arjen Gorter, Louis Moholo) - Pleasure - 2004, rec. 1970, FLAC (tracks+.cue), lossless

(Free Jazz) [CD] Kees Hazevoet (Kris Wanders, Arjen Gorter, Louis Moholo) - Pleasure - 2004, rec. 1970, FLAC (tracks+.cue), lossless
Треклист:
Kees Hazevoet - Pleasure
Жанр: Free Jazz
Носитель: CD
Страна-производитель диска: USA
Год издания: 2004
Год записи: 1970, originally released on Peace Records (LP 10870)
Издатель (лейбл): Atavistic
Номер по каталогу: UMS/ALP234CD / Unheard Music Series
Аудиокодек: FLAC (*.flac)
Тип рипа: tracks+.cue
Битрейт аудио: lossless
Продолжительность: 00:39:33
Источник (релизер): nnm, Джаз Клуб, 28 ноября, 2013 / спасибо mishka1981
Наличие сканов в содержимом раздачи: да / *.jpg (300 dpi)
Треклист:
1. Moving Lady (12:57)
2. What Happens (06:24)
3. All There (20:18)
All composed by Kees Hazevoet
Доп. информация:
Musicians:
KEES HAZEVOET - piano, clarinet, trumpet
KRIS WANDERS - alto saxophone
ARJEN GORTER - bass
LOUIS MOHOLO - drums
Recorded in Amsterdam, September 6, 1970 by Alwin Mulder
KEES HAZEVOET - Pleasure atavistic.com
KEES HAZEVOET from Wikipedia, the free encyclopedia
KRIS WANDERS Official Site
ARJEN GORTER from Wikipedia, the free encyclopedia
LOUIS MOHOLO from Wikipedia, the free encyclopedia
 
... photo ...
 
... review ...
In Amsterdam, at the end of the 1960s, pianist/clarinetist Kees Hazevoet and alto saxophonist Kris Wanders (a Dutchman based in Antwerp, Belgium) faced a dilemma not uncommon in jazz circles: the search for the right drummer. Wanders and Hazevoet began working together in 1969, and they initially turned to a now-deceased Dutch drummer named Eugene Broekhoven, with whom Kees had been rehearsing. Broekhoven had played with Willem Breuker's group in the mid '60s, but at the time he hooked up with Hazevoet he was earning a living in the house band at a strip club.
"Ever since I started listening to jazz (and trying to play it), I had a special interest in the drummers," says Hazevoet. "I always felt that they are the ones that make a band sound good (or bad). And I always had a special bond with the drummer and tried to choose them carefully. Most of the local drummers weren't up to the task, to say the least. Nevertheless, I often managed to make them play in a way that they didn't know themselves capable of - something they themselves acknowledged."
Hazevoet cultivated this kind of simpatico relationship with Broekhoven, and he recalls that Wanders was impressed by the drummer's playing, enough so that he took Broekhoven on a tour of Germany without Hazevoet, only to find that without Kees's guidance he played considerably less well. After the tour, Wanders refused to play with Broekhoven again. The problem was that Hazevoet had arranged a recording session that would ostensibly have involved the drummer. "The solution came quickly and couldn't have been better," says Hazevoet. "A few days before the date I learned that Louis Moholo was in town and asked him if he could join in. So, on a Sunday afternoon, at the auditorium of the Stedelijk Museum, we recorded PLEASURE. As you can hear, Louis picked it up marvelously."
Together with Arjen Gorter, a collaborator of Hazevoet's since school days and the keystone bassist of the emerging Amsterdam scene, Moholo, Wanders and Hazevoet coalesced into a terrific free jazz quartet. Their repertoire included terse themes by Hazevoet, and the playing is propelled by Moholo's mighty drumming - a South African amplification of some of the wave-like energy-field ideas Sonny Murray had pioneered - coupled with Hazevoet's walloping piano. PLEASURE was issued in an unusually small batch - 250 copies, each with a hand-silkscreened cover - but a few made their way into journalists' hands and garnered some glowing reviews, which made the prospect of continued work favorable. Since Moholo was based in London and was frequently busy with other groups, like Chris McGregor's Brotherhood of Breath, it wasn't always possible for Hazevoet and Wanders to use him, so various other drummers were drafted, including Han Bennink, Paul Lovens, Noel McGhee and Martin van Duynhoven. Other musicians joined the Hazevoet-Wanders group over its few years' lifespan, including trombonists Willem van Manen and Radu Malfatti, and bassist Robert Scholler (a rare improvisor from Luxembourg). Hazevoet fondly recalls the introduction of Jean Vandenplas, a violinist and cellist brought into the group by Wanders. (After Wanders and Hazevoet split, Kees worked with Vandenplas in other contexts, including an enticing trio with Han Bennink.) Hazevoet's description of Vandenplas says a good bit about his musical interests: "Obsessive player with a good hysterical string sound. Also an entirely uncommunicative character - during some four years of playing we hardly exchanged more than ten words with each other. Good!"
Not long into the '70s, Wanders changed from alto to tenor saxophone. Hazevoet and he continued working together until the end of 1973. Hazevoet played with Moholo on and off for the pianist's remaining years in jazz; the drummer appears, for instance (alongside Bennink) on the 1976 Haazz & Company concert recording UNLAWFUL NOISE (issued on KGB Records, reissued on Unheard Music Series). Moholo remains as virtually the only living member of the South African new jazz scene, and he continues to make vibrant sounds, even as his countrymen have met such untimely ends. Hazevoet left music in 1980 to pursue another life in the zoological sciences, but not before documenting his long and fruitful relationship with percussionist Han Bennink on an LP titled CALLING DOWN THE FLEVO SPIRIT.
~ John Corbett, Chicago, November 2003 ~ atavistic.com
 
Лог создания рипа
Exact Audio Copy V1.0 beta 1 from 15. November 2010
EAC extraction logfile from 28. November 2013, 20:41
Kees Hazevoet / Pleasuse One
Used drive : TSSTcorpCDDVDW TS-L633A Adapter: 3 ID: 0
Read mode : Secure
Utilize accurate stream : Yes
Defeat audio cache : Yes
Make use of C2 pointers : No
Read offset correction : 6
Overread into Lead-In and Lead-Out : No
Fill up missing offset samples with silence : Yes
Delete leading and trailing silent blocks : No
Null samples used in CRC calculations : Yes
Used interface : Installed external ASPI interface
Gap handling : Appended to previous track
Used output format : User Defined Encoder
Selected bitrate : 896 kBit/s
Quality : High
Add ID3 tag : No
Command line compressor : C:\Program Files\Exact Audio Copy\FLAC\FLAC.EXE
Additional command line options : -8 -V -T "ARTIST=%a" -T "TITLE=%t" -T "ALBUM=%g" -T "DATE=%y" -T "TRACKNUMBER=%n" -T "TOTALTRACKS=%x" -T "GENRE=%m" -T "ALBUMARTIST=%v" -T "ALBUM ARTIST=%v" -T "COMMENT=EAC Secure Mode, Test & Copy, AccurateRip, FLAC -8" %s
TOC of the extracted CD
Track | Start | Length | Start sector | End sector
---------------------------------------------------------
1 | 0:01.00 | 12:57.00 | 75 | 58349
2 | 12:58.00 | 6:24.12 | 58350 | 87161
3 | 19:22.12 | 20:18.57 | 87162 | 178568
Track 1
Filename C:\MY RIPS\01 - Moving Lady.wav
Pre-gap length 0:00:03.00
Peak level 99.9 %
Extraction speed 1.2 X
Track quality 99.9 %
Test CRC 62B56E88
Copy CRC 62B56E88
Track not present in AccurateRip database
Copy OK
Track 2
Filename C:\MY RIPS\02 - What Happens.wav
Pre-gap length 0:00:02.46
Peak level 78.2 %
Extraction speed 1.2 X
Track quality 99.9 %
Test CRC 7AD4D1CF
Copy CRC 7AD4D1CF
Track not present in AccurateRip database
Copy OK
Track 3
Filename C:\MY RIPS\03 - All There.wav
Pre-gap length 0:00:03.35
Peak level 83.0 %
Extraction speed 1.8 X
Track quality 100.0 %
Test CRC EB39C8EA
Copy CRC EB39C8EA
Track not present in AccurateRip database
Copy OK
None of the tracks are present in the AccurateRip database
No errors occurred
End of status report
==== Log checksum 61230704077061265F65C189985A59204E929EC60C97352FE106B66F9548F850 ====
 
Содержание индексной карты (.CUE)
REM GENRE Jazz
REM DATE 2004
REM DISCID 1E094B03
REM COMMENT "ExactAudioCopy v1.0b1"
PERFORMER "Kees Hazevoet"
TITLE "Pleasuse One"
FILE "01 - Moving Lady.wav" WAVE
TRACK 01 AUDIO
TITLE "Moving Lady"
PERFORMER "Kees Hazevoet"
PREGAP 00:01:00
INDEX 01 00:00:00
TRACK 02 AUDIO
TITLE "What Happens"
PERFORMER "Kees Hazevoet"
INDEX 00 12:54:29
FILE "02 - What Happens.wav" WAVE
INDEX 01 00:00:00
TRACK 03 AUDIO
TITLE "All There"
PERFORMER "Kees Hazevoet"
INDEX 00 06:20:52
FILE "03 - All There.wav" WAVE
INDEX 01 00:00:00
 
auCDtect Task Manager
-----------------------
DON'T MODIFY THIS FILE
-----------------------
PERFORMER: auCDtect Task Manager, ver. 1.5.1RC6 build 1.5.1.7
Copyright (c) 2008-2010 y-soft. All rights reserved
http://y-soft.org
ANALYZER: auCDtect: CD records authenticity detector, version 0.8.2
Copyright (c) 2004 Oleg Berngardt. All rights reserved.
Copyright (c) 2004 Alexander Djourik. All rights reserved.
FILE: 03 - All There.flac
Size: 119230681 Hash: 1BD4F29727E1D69046C1FE781FC410C2 Accuracy: -m0
Conclusion: CDDA 100%
Signature: DAF3E452A62B2F2206B29C576CDAA2F2B7F76C68
FILE: 02 - What Happens.flac
Size: 28944362 Hash: D831464FB1732D85E47AF48FBC08C8AB Accuracy: -m0
Conclusion: CDDA 100%
Signature: 28A9B0F6A451C828829937291B9DDE9513F7F583
FILE: 01 - Moving Lady.flac
Size: 82588350 Hash: 8C4356E5D6D193E6284DC009F5FAF400 Accuracy: -m0
Conclusion: CDDA 100%
Signature: F7455CDC025A41568C0D8EF6D7079BD79C0EF453
... релизы с участием KRIS WANDERS на трекере ...
Any questions -> support@pro-jazz.com. По всем вопросам пишите -> support@pro-jazz.com
21:11
185
Нет комментариев. Ваш будет первым!