Вы используете незарегистрированную версию компонента "Вкладки"!

Поиск

(Avant-Garde Jazz) [CD] Mayhem Circus Electric - Lubricity - 2010, FLAC (tracks+.cue), lossless

(Avant-Garde Jazz) [CD] Mayhem Circus Electric - Lubricity - 2010, FLAC (tracks+.cue), lossless
Треклист:
Mayhem Circus Electric - Lubricity
Жанр: Avant-Garde Jazz
Носитель: CD
Страна-производитель диска: США
Год издания: 2010
Издатель (лейбл): NHIC Records
Номер по каталогу: NHIC005
Аудиокодек: FLAC (*.flac)
Тип рипа: tracks+.cue
Битрейт аудио: lossless
Продолжительность: 53:44
Источник (релизер): lindinalwa (what)
Наличие сканов в содержимом раздачи: да
Треклист:
01. MCE (Gorry) - 5:56
02. Protest Reform (Cedrone) - 6:39
03. Big Primpin (Trier) - 4:58
04. London Fields (Gorry) - 2:49
05. Lubricity (Gorry) - 6:49
06. Trio (Trier) - 2:29
07. On Three (Trier) - 5:42
08. Steps (Gorry) - 3:39
09. Sequential Circutry (Trier) - 5:42
10. Success Fail (Trier) - 3:57
11. Excecutioner of the Estate (Trier) - 5:04
Состав:
Pete Brunelli - bass
Jeff Cedrone, Bob Gorry - guitar
Paul McGuire - saxophones, djembe
Nate Trier - keyboards, djembe
John Venter - bass clarinet
Stephen Zieminski - drums, percussion
Recorded at Firehouse 12, New Haven, CT on November 7, 2009.
 
Лог создания рипа
Exact Audio Copy V0.99 prebeta 5 from 4. May 2009
EAC extraction logfile from 11. December 2011, 20:25
Mayhem Circus Electric / Lubricity
Used drive : Optiarc DVD RW AD-7243S Adapter: 0 ID: 1
Read mode : Secure
Utilize accurate stream : Yes
Defeat audio cache : Yes
Make use of C2 pointers : No
Read offset correction : 48
Overread into Lead-In and Lead-Out : No
Fill up missing offset samples with silence : Yes
Delete leading and trailing silent blocks : No
Null samples used in CRC calculations : Yes
Used interface : Native Win32 interface for Win NT & 2000
Gap handling : Appended to previous track
Used output format : User Defined Encoder
Selected bitrate : 768 kBit/s
Quality : High
Add ID3 tag : No
Command line compressor : C:\Program Files\Exact Audio Copy\FLAC\FLAC.EXE
Additional command line options : -6 -V -T "ARTIST=%a" -T "TITLE=%t" -T "ALBUM=%g" -T "DATE=%y" -T "TRACKNUMBER=%n" -T "GENRE=%m" -T "COMMENT=%e" %s -o %d
TOC of the extracted CD
Track | Start | Length | Start sector | End sector
---------------------------------------------------------
1 | 0:00.00 | 5:56.11 | 0 | 26710
2 | 5:56.11 | 6:39.19 | 26711 | 56654
3 | 12:35.30 | 4:58.25 | 56655 | 79029
4 | 17:33.55 | 2:49.36 | 79030 | 91740
5 | 20:23.16 | 6:48.40 | 91741 | 122380
6 | 27:11.56 | 2:28.48 | 122381 | 133528
7 | 29:40.29 | 5:41.52 | 133529 | 159155
8 | 35:22.06 | 3:39.21 | 159156 | 175601
9 | 39:01.27 | 5:42.01 | 175602 | 201252
10 | 44:43.28 | 3:56.49 | 201253 | 219001
11 | 48:40.02 | 5:04.29 | 219002 | 241830
Track 1
Filename C:\Documents and Settings\S\Мои документы\Torrent раздача\01.Mayhem Circus Electric-MCE.wav
Pre-gap length 0:00:02.00
Peak level 97.7 %
Track quality 100.0 %
Test CRC 230E1CB5
Copy CRC 230E1CB5
Track not present in AccurateRip database
Copy OK
Track 2
Filename C:\Documents and Settings\S\Мои документы\Torrent раздача\02.Mayhem Circus Electric-Protest Reform.wav
Peak level 97.7 %
Track quality 100.0 %
Test CRC 6881246F
Copy CRC 6881246F
Track not present in AccurateRip database
Copy OK
Track 3
Filename C:\Documents and Settings\S\Мои документы\Torrent раздача\03.Mayhem Circus Electric-Big Primpin.wav
Peak level 97.7 %
Track quality 100.0 %
Test CRC 335C4ADB
Copy CRC 335C4ADB
Track not present in AccurateRip database
Copy OK
Track 4
Filename C:\Documents and Settings\S\Мои документы\Torrent раздача\04.Mayhem Circus Electric-London Fields.wav
Peak level 97.7 %
Track quality 100.0 %
Test CRC BB7679F4
Copy CRC BB7679F4
Track not present in AccurateRip database
Copy OK
Track 5
Filename C:\Documents and Settings\S\Мои документы\Torrent раздача\05.Mayhem Circus Electric-Lubricity.wav
Peak level 97.7 %
Track quality 100.0 %
Test CRC 88C6A999
Copy CRC 88C6A999
Track not present in AccurateRip database
Copy OK
Track 6
Filename C:\Documents and Settings\S\Мои документы\Torrent раздача\06.Mayhem Circus Electric-Trio.wav
Peak level 97.7 %
Track quality 100.0 %
Test CRC 38E8D12C
Copy CRC 38E8D12C
Track not present in AccurateRip database
Copy OK
Track 7
Filename C:\Documents and Settings\S\Мои документы\Torrent раздача\07.Mayhem Circus Electric-On Tree.wav
Peak level 97.7 %
Track quality 99.9 %
Test CRC 7CFF2B56
Copy CRC 7CFF2B56
Track not present in AccurateRip database
Copy OK
Track 8
Filename C:\Documents and Settings\S\Мои документы\Torrent раздача\08.Mayhem Circus Electric-Steps.wav
Peak level 97.7 %
Track quality 100.0 %
Test CRC EC0856D1
Copy CRC EC0856D1
Track not present in AccurateRip database
Copy OK
Track 9
Filename C:\Documents and Settings\S\Мои документы\Torrent раздача\09.Mayhem Circus Electric-Sequential Circutry.wav
Peak level 97.7 %
Track quality 99.9 %
Test CRC E1BABF28
Copy CRC E1BABF28
Track not present in AccurateRip database
Copy OK
Track 10
Filename C:\Documents and Settings\S\Мои документы\Torrent раздача\10.Mayhem Circus Electric-Success Fail.wav
Peak level 97.7 %
Track quality 99.8 %
Test CRC E53D0A09
Copy CRC A5196429
Track not present in AccurateRip database
Copy OK
Track 11
Filename C:\Documents and Settings\S\Мои документы\Torrent раздача\11.Mayhem Circus Electric-Excecutioner Of The Estate.wav
Peak level 97.7 %
Track quality 100.0 %
Test CRC 94FF95D3
Copy CRC 94FF95D3
Track not present in AccurateRip database
Copy OK
None of the tracks are present in the AccurateRip database
No errors occurred
End of status report
 
Содержание индексной карты (.CUE)
REM GENRE Jazz
REM DATE 2010
REM DISCID 920C980B
REM COMMENT "ExactAudioCopy v0.99pb5"
PERFORMER "Mayhem Circus Electric"
TITLE "Lubricity"
FILE "01 - MCE.wav" WAVE
TRACK 01 AUDIO
TITLE "MCE"
PERFORMER "Mayhem Circus Electric"
INDEX 01 00:00:00
FILE "02 - Protest Reform.wav" WAVE
TRACK 02 AUDIO
TITLE "Protest Reform"
PERFORMER "Mayhem Circus Electric"
INDEX 01 00:00:00
FILE "03 - Big Primpin.wav" WAVE
TRACK 03 AUDIO
TITLE "Big Primpin"
PERFORMER "Mayhem Circus Electric"
INDEX 01 00:00:00
FILE "04 - London Fields.wav" WAVE
TRACK 04 AUDIO
TITLE "London Fields"
PERFORMER "Mayhem Circus Electric"
INDEX 01 00:00:00
FILE "05 - Lubricity.wav" WAVE
TRACK 05 AUDIO
TITLE "Lubricity"
PERFORMER "Mayhem Circus Electric"
INDEX 01 00:00:00
FILE "06 - Trio.wav" WAVE
TRACK 06 AUDIO
TITLE "Trio"
PERFORMER "Mayhem Circus Electric"
INDEX 01 00:00:00
FILE "07 - On Three.wav" WAVE
TRACK 07 AUDIO
TITLE "On Three"
PERFORMER "Mayhem Circus Electric"
INDEX 01 00:00:00
FILE "08 - Steps.wav" WAVE
TRACK 08 AUDIO
TITLE "Steps"
PERFORMER "Mayhem Circus Electric"
INDEX 01 00:00:00
FILE "09 - Sequential Circutry.wav" WAVE
TRACK 09 AUDIO
TITLE "Sequential Circutry"
PERFORMER "Mayhem Circus Electric"
INDEX 01 00:00:00
FILE "10 - Success Fail.wav" WAVE
TRACK 10 AUDIO
TITLE "Success Fail"
PERFORMER "Mayhem Circus Electric"
INDEX 01 00:00:00
FILE "11 - Excecutioner of the Estate.wav" WAVE
TRACK 11 AUDIO
TITLE "Excecutioner of the Estate"
PERFORMER "Mayhem Circus Electric"
INDEX 01 00:00:00
 
Об альбоме (сборнике)
Mayhem Circus Electric is a raucous improv band that makes excitement out of thin air and develops written themes with a singular purpose. And just a hint of electric Miles Davis. Lubricity captures the spirit of Mayhem Circus Electric in mid-flight with sonic celebrations of solid rhythmic invention underneath spiraling themes and counter-themes. Metallic percussive fury complements exploratory bass clarinet. Oh Yeah!
MCE takes chances in an aggressive musical exploration, but always gives you something to hold onto. Sometimes a theme, sometimes just a strand of tonality, always interesting rhythms. Just when it seems like things might get all abstract on you, the band takes you and your hips to a higher level of avant groove.
Mayhem Circus Electric exploded out of the ever-expanding New Haven Improvisers Collective.
NHIC is a far-reaching collective of creative musicians forming into a particular group to play particular music in a particular moment. NHIC is interaction, conflict, and harmony.
Any questions -> support@pro-jazz.com. По всем вопросам пишите -> support@pro-jazz.com
21:43
112
Нет комментариев. Ваш будет первым!