Вы используете незарегистрированную версию компонента "Вкладки"!

Поиск

(Free Jazz) [CD] Łoskot (Loskot) - Amariuch - 1998 [Multikulti Project, MPCD06], FLAC (image+.cue+scans), lossless

(Free Jazz) [CD] Łoskot (Loskot) - Amariuch - 1998 [Multikulti Project, MPCD06], FLAC (image+.cue+scans), lossless
Треклист:
Łoskot - Amariuch
Жанр: Free Jazz | Год издания: 1998 | Страна: PolandАудиокодек: FLAC (*.flac) | Тип рипа: image+.cue | Битрейт аудио: lossless | Продолжительность: 00:47:07Страна производитель диска: Poland | Издатель: Multikulti Project | Номер по каталогу: MPCD06Наличие сканов в содержимом раздачи: да | Источник (релизер): ed2k::SurowyTato
Треклист:
01. Zlodzieje Pradu 0:37
02. Misiowiec 7:45
03. Historia Pary Wodnej 2:35
04. Brazowy Medal 4:28
05. Dobroc Rak 5:57
06. Western Morski 1:57
07. Mechafogg 1:36
08. Swiat Wedlug Mfogga 7:02
09. Misiucha Jest Polakiem 2:55
10. Amariuch 4:38
11. Powrot Sieroty 6:40
12. Australopitek 0:59
 
Лог создания рипа
Exact Audio Copy V0.99 prebeta 5 from 4. May 2009
EAC extraction logfile from 5. December 2010, 20:12
Loskot / Amariuch
Used drive : PLEXTOR DVDR PX-810SA Adapter: 1 ID: 0
Read mode : Secure
Utilize accurate stream : Yes
Defeat audio cache : Yes
Make use of C2 pointers : No
Read offset correction : 48
Overread into Lead-In and Lead-Out : No
Fill up missing offset samples with silence : Yes
Delete leading and trailing silent blocks : No
Null samples used in CRC calculations : Yes
Used interface : Installed external ASPI interface
Used output format : User Defined Encoder
Selected bitrate : 768 kBit/s
Quality : High
Add ID3 tag : No
Command line compressor : E:\Program Files\Exact Audio Copy\FLAC\FLAC.EXE
Additional command line options : --best -V -T "date=%y" -T "genre=%m" %s
TOC of the extracted CD
Track | Start | Length | Start sector | End sector
---------------------------------------------------------
1 | 0:00.00 | 0:36.61 | 0 | 2760
2 | 0:36.61 | 7:44.53 | 2761 | 37613
3 | 8:21.39 | 2:34.41 | 37614 | 49204
4 | 10:56.05 | 4:27.73 | 49205 | 69302
5 | 15:24.03 | 5:56.41 | 69303 | 96043
6 | 21:20.44 | 1:56.61 | 96044 | 104804
7 | 23:17.30 | 1:35.74 | 104805 | 112003
8 | 24:53.29 | 7:02.18 | 112004 | 143671
9 | 31:55.47 | 2:55.03 | 143672 | 156799
10 | 34:50.50 | 4:37.66 | 156800 | 177640
11 | 39:28.41 | 6:39.58 | 177641 | 207623
12 | 46:08.24 | 0:58.60 | 207624 | 212033
Range status and errors
Selected range
Filename E:\INCOMING\EAC\Loskot - Amariuch.wav
Peak level 100.0 %
Range quality 100.0 %
Test CRC 4C92AF26
Copy CRC 4C92AF26
Copy OK
No errors occurred
End of status report
 
Содержание индексной карты (.CUE)
REM GENRE Yass
REM DATE 1998
REM DISCID AA0B0B0C
REM COMMENT "ExactAudioCopy v0.99pb5"
CATALOG 0000000000000
PERFORMER "Loskot"
TITLE "Amariuch"
FILE "Loskot - Amariuch.flac" WAVE
TRACK 01 AUDIO
TITLE "Zlodzieje Pradu"
PERFORMER "Loskot"
INDEX 01 00:00:00
TRACK 02 AUDIO
TITLE "Misiowiec"
PERFORMER "Loskot"
INDEX 01 00:36:61
TRACK 03 AUDIO
TITLE "Historia Pary Wodnej"
PERFORMER "Loskot"
INDEX 01 08:21:39
TRACK 04 AUDIO
TITLE "Brazowy Medal"
PERFORMER "Loskot"
INDEX 01 10:56:05
TRACK 05 AUDIO
TITLE "Dobroc Rak"
PERFORMER "Loskot"
INDEX 01 15:24:03
TRACK 06 AUDIO
TITLE "Western Morski"
PERFORMER "Loskot"
INDEX 01 21:20:44
TRACK 07 AUDIO
TITLE "Mechafogg"
PERFORMER "Loskot"
INDEX 01 23:17:30
TRACK 08 AUDIO
TITLE "Swiat Wedlug Mfogga"
PERFORMER "Loskot"
INDEX 01 24:53:29
TRACK 09 AUDIO
TITLE "Misiucha Jest Polakiem"
PERFORMER "Loskot"
INDEX 01 31:55:47
TRACK 10 AUDIO
TITLE "Amariuch"
PERFORMER "Loskot"
INDEX 01 34:50:50
TRACK 11 AUDIO
TITLE "Powrot Sieroty"
PERFORMER "Loskot"
INDEX 01 39:28:41
TRACK 12 AUDIO
TITLE "Australopitek"
PERFORMER "Loskot"
INDEX 01 46:08:24
 
Состав

Recorded, 7-10 October 1997 by Jacek Puchalski at Polish Radio Studio Gdansk
Mixed by Grzegorz Czachor at Tuba Records, Wroclaw
Assistant Engineers: Marcin Chyra, Janusz Krasnopolski
Mastered by Grzegorz Czachor
Executive producers: Tomasz Konwent & Jan Wiktor Soroko
Music produced by Piotr Pawlak
Album Design: Dariusz Orwat
Cover Concept: Loskot
Front Cover: Dariusz Orwat
Envelope Concept: Fripp & Maras
Photography & Stylist: Dariusz Orwat
Personnel:
Mikolaj Trzaska - alto sax, soprano sax, baritone sax, bass clarinette
Piotr Pawlak - guitar & loops, screem
Olgierd Walicki - electric & acoustic bass
Tomasz Gwincinski - drums, voice
Szymon Roginski - didgeridoo, pila, voice (3,5,6,12)
Janusz Krasnopolski - drums programming (5,10)

ARTIST::homepage
MP3 320 kbps
По всем вопросам пишите личное сообщение пользователю M0p94ok.
21:43
150
Нет комментариев. Ваш будет первым!