Вы используете незарегистрированную версию компонента "Вкладки"!

Поиск

(Avantgarde Jazz, Experimental, Free Improvisation) [CD] iH8 Camera - iH8 Camera (Live at Burg Herzberg Festival 2006) - 2009, FLAC (tracks+.cue), lossless

(Avantgarde Jazz, Experimental, Free Improvisation) [CD] iH8 Camera - iH8 Camera (Live at Burg Herzberg Festival 2006) - 2009, FLAC (tracks+.cue), lossless
Треклист:
iH8 Camera / iH8 Camera (Live at Burg Herzberg Festival 2006)
Жанр: Avantgarde Jazz, Experimental, Free Improvisation
Носитель: CD
Страна-производитель диска: EU
Год издания: 2009
Издатель (лейбл): Trip In Time
Номер по каталогу: WIS-T2506
Страна: Germany
Аудиокодек: FLAC (*.flac)
Тип рипа: tracks+.cue
Битрейт аудио: lossless
Продолжительность: 0:50:50.
Источник (релизер): clustert
Наличие сканов в содержимом раздачи: да
Треклист:
01. Breitenbach Am Herzberg 10:03
02. Grebenau 10:12
03. Schlitz 6:36
04. Niederaula 4:35
05. Unter Schwarz 7:25
06. Haunetal 4:33
07. Ottrau 7:23
 
Лог создания рипа
Exact Audio Copy V1.0 beta 3 from 29. August 2011
Отчёт EAC об извлечении, выполненном 22. декабря 2013, 0:50
iH8 Camera / Live at Burg Herzberg Festival 2006
Дисковод: ASUS DRW-1814BLT Adapter: 4 ID: 0
Режим чтения : Достоверность
Использование точного потока : Да
Отключение кэша аудио : Да
Использование указателей C2 : Нет
Коррекция смещения при чтении : 6
Способность читать области Lead-in и Lead-out : Нет
Заполнение пропущенных сэмплов тишиной : Да
Удаление блоков с тишиной в начале и конце : Нет
При вычислениях CRC использовались нулевые сэмплы : Да
Интерфейс : Встроенный Win32-интерфейс для Win NT/2000
Обработка зазоров : Добавлено к предыдущему треку
Выходной формат : Пользовательский кодировщик
Выбранный битрейт : 128 kBit/s
Качество : Высокий
Добавление ID3-тега : Нет
Утилита сжатия : C:\Program Files\Exact Audio Copy\Flac\flac.exe
Дополнительные параметры : -V -8 -T "Genre=%genre%" -T "Artist=%artist%" -T "Title=%title%" -T "Album=%albumtitle%" -T "Date=%year%" -T "Tracknumber=%tracknr%" -T "Comment=EAC1.0b2 FLAC -8" %source%
TOC извлечённого CD
Трек | Старт | Длительность | Начальный сектор | Конечный сектор
---------------------------------------------------------------------
1 | 0:00.00 | 10:03.29 | 0 | 45253
2 | 10:03.29 | 10:12.32 | 45254 | 91185
3 | 20:15.61 | 6:36.74 | 91186 | 120959
4 | 26:52.60 | 4:35.72 | 120960 | 141656
5 | 31:28.57 | 7:25.33 | 141657 | 175064
6 | 38:54.15 | 4:33.21 | 175065 | 195560
7 | 43:27.36 | 7:23.17 | 195561 | 228802
Трек 1
Имя файла R:\Раздача 7\iH8 Camera - 2009 (Live at Burg Herzberg Festival 2006)\01 Breitenbach Am Herzberg.wav
Длина предзазора 0:00:02.00
Пиковый уровень 99.7 %
Скорость извлечения 3.2 X
Качество трека 100.0 %
CRC теста 6DB33541
CRC копии 6DB33541
Копирование... OK
Трек 2
Имя файла R:\Раздача 7\iH8 Camera - 2009 (Live at Burg Herzberg Festival 2006)\02 Grebenau.wav
Пиковый уровень 99.7 %
Скорость извлечения 3.9 X
Качество трека 100.0 %
CRC теста B78A26FE
CRC копии B78A26FE
Копирование... OK
Трек 3
Имя файла R:\Раздача 7\iH8 Camera - 2009 (Live at Burg Herzberg Festival 2006)\03 Schlitz.wav
Пиковый уровень 99.7 %
Скорость извлечения 4.3 X
Качество трека 100.0 %
CRC теста 171E5CAB
CRC копии 171E5CAB
Копирование... OK
Трек 4
Имя файла R:\Раздача 7\iH8 Camera - 2009 (Live at Burg Herzberg Festival 2006)\04 Niederaula.wav
Пиковый уровень 99.7 %
Скорость извлечения 4.4 X
Качество трека 100.0 %
CRC теста 5DE3A865
CRC копии 5DE3A865
Копирование... OK
Трек 5
Имя файла R:\Раздача 7\iH8 Camera - 2009 (Live at Burg Herzberg Festival 2006)\05 Unter Schwarz.wav
Пиковый уровень 99.7 %
Скорость извлечения 4.8 X
Качество трека 100.0 %
CRC теста 8731FD93
CRC копии 8731FD93
Копирование... OK
Трек 6
Имя файла R:\Раздача 7\iH8 Camera - 2009 (Live at Burg Herzberg Festival 2006)\06 Haunetal.wav
Пиковый уровень 99.7 %
Скорость извлечения 4.9 X
Качество трека 100.0 %
CRC теста A7E14E58
CRC копии A7E14E58
Копирование... OK
Трек 7
Имя файла R:\Раздача 7\iH8 Camera - 2009 (Live at Burg Herzberg Festival 2006)\07 Ottrau.wav
Пиковый уровень 99.8 %
Скорость извлечения 5.0 X
Качество трека 99.9 %
CRC теста 35D41960
CRC копии 35D41960
Копирование... OK
Ошибок не произошло
Конец отчёта
==== Контрольная сумма отчёта 222F28316C2ACA613670E2AF97E92587136F5796B89172B40BF461BA9B096A01 ====
 
Содержание индексной карты (.CUE)
REM GENRE Jazz
REM DATE 2009
REM DISCID 550BEA07
REM COMMENT "ExactAudioCopy v1.0b3"
PERFORMER "iH8 Camera"
TITLE "Live at Burg Herzberg Festival 2006"
FILE "01 Breitenbach Am Herzberg.wav" WAVE
TRACK 01 AUDIO
TITLE "Breitenbach Am Herzberg"
PERFORMER "iH8 Camera"
ISRC <c[320900001
INDEX 01 00:00:00
FILE "02 Grebenau.wav" WAVE
TRACK 02 AUDIO
TITLE "Grebenau"
PERFORMER "iH8 Camera"
ISRC <c[320900002
INDEX 01 00:00:00
FILE "03 Schlitz.wav" WAVE
TRACK 03 AUDIO
TITLE "Schlitz"
PERFORMER "iH8 Camera"
ISRC <c[320900003
INDEX 01 00:00:00
FILE "04 Niederaula.wav" WAVE
TRACK 04 AUDIO
TITLE "Niederaula"
PERFORMER "iH8 Camera"
ISRC <c[320900004
INDEX 01 00:00:00
FILE "05 Unter Schwarz.wav" WAVE
TRACK 05 AUDIO
TITLE "Unter Schwarz"
PERFORMER "iH8 Camera"
ISRC <c[320900005
INDEX 01 00:00:00
FILE "06 Haunetal.wav" WAVE
TRACK 06 AUDIO
TITLE "Haunetal"
PERFORMER "iH8 Camera"
ISRC <c[320900006
INDEX 01 00:00:00
FILE "07 Ottrau.wav" WAVE
TRACK 07 AUDIO
TITLE "Ottrau"
PERFORMER "iH8 Camera"
ISRC <c[320900007
INDEX 01 00:00:00
 
Состав
Rudy Trouve - voice, guitar, synthesizer
Elko Blijweert - voice, guitar, synthesizer
Craig Ward - guitar, soprano saxophone, drums, voice
Teuk Henri - guitar
Bert Lanaerts - bass
Jeroen Stevens - drums
По всем вопросам пишите личное сообщение пользователю M0p94ok.
21:42
136
Нет комментариев. Ваш будет первым!