Вы используете незарегистрированную версию компонента "Вкладки"!

Поиск

(Avant-Garde Jazz) [CD] Luis Lopes Humanization 4tet (Rodrigo Amado, Aaron Gonzalez, Stefan Gonzalez) - Electricity - 2010 [Ayler Records AYLCD-113], FLAC (tracks+.cue), lossless

(Avant-Garde Jazz) [CD] Luis Lopes Humanization 4tet (Rodrigo Amado, Aaron Gonzalez, Stefan Gonzalez) - Electricity - 2010 [Ayler Records AYLCD-113], FLAC (tracks+.cue), lossless
Треклист:
Luís Lopes Humanization 4tet - Electricity
Жанр: Avant-Garde Jazz
Носитель: CD
Страна-производитель диска (релиза): France
Год издания: 2010
Издатель (лейбл): Ayler Records
Номер по каталогу: AYLCD-113
Аудиокодек: FLAC (*.flac)
Тип рипа: tracks+.cue
Битрейт аудио: lossless
Продолжительность: 00:51:40
Источник (релизер): what.cd / спасибо 6060842
Наличие сканов в содержимом раздачи: нет
Треклист:
1. Dehumanization Blues (09:15)
2. Jungle Gymnastics (04:38)
3. Two Girls (06:04)
4. Effigy (06:46)
5. Procurei-te Na Noite (05:43)
6. Infidelities (06:31)
7. Eavesdropper (for Dennis González) / Ruas Sentimentais (12:41)
Доп. информация:
Musicians:
Luís Lopes - electric guitar
Rodrigo Amado - tenor saxophone
Aaron González - bass
Stefan González - drums
Recorded at Namouche Studios, Lisbon, Portugal on December 3 & 4, 2009
Luís Lopes Humanization 4tet - Electricity ayler.com
 
... photo ...

 
Лог создания рипа
X Lossless Decoder version 20130602 (143.2)
XLD extraction logfile from 2013-07-08 22:33:39 +0400
Luís Lopes Humanization 4tet / Electricity
Used drive : HL-DT-ST DVDRW GX30N (revision RP09)
Media type : Pressed CD
Ripper mode : XLD Secure Ripper
Disable audio cache : OK for the drive with a cache less than 1375KiB
Make use of C2 pointers : NO
Read offset correction : 6
Max retry count : 100
Gap status : Analyzed, Appended (except HTOA)
TOC of the extracted CD
Track | Start | Length | Start sector | End sector
---------------------------------------------------------
1 | 00:00:00 | 09:15:29 | 0 | 41653
2 | 09:15:29 | 04:38:38 | 41654 | 62541
3 | 13:53:67 | 06:04:38 | 62542 | 89879
4 | 19:58:30 | 06:46:28 | 89880 | 120357
5 | 26:44:58 | 05:43:42 | 120358 | 146124
6 | 32:28:25 | 06:31:18 | 146125 | 175467
7 | 38:59:43 | 12:41:08 | 175468 | 232550
AccurateRip Summary
Disc not found in AccurateRip DB.
All Tracks
Album gain : -10.04 dB
Peak : 0.999969
Statistics
Read error : 0
Jitter error (maybe fixed) : 0
Retry sector count : 0
Damaged sector count : 0
Track 01
Filename : /Users/anch/Music/FLAC/Luís Lopes Humanization 4tet - 2010 - Electricity [MP3 320]/01 - Dehumanization Blues.mp3
/Users/anch/Music/FLAC/Luís Lopes Humanization 4tet - 2010 - Electricity [MP3 V0]/01 - Dehumanization Blues.mp3
/Users/anch/Music/FLAC/Luís Lopes Humanization 4tet - 2010 - Electricity [FLAC]/01 - Dehumanization Blues.flac
Pre-gap length : 00:02:00
Track gain : -10.14 dB
Peak : 0.999969
CRC32 hash (test run) : 20FF5E2A
CRC32 hash : 20FF5E2A
CRC32 hash (skip zero) : 778DBF00
AccurateRip v1 signature : 0E9527A7
AccurateRip v2 signature : 34A4341C
->Track not present in AccurateRip database.
Statistics
Read error : 0
Jitter error (maybe fixed) : 0
Retry sector count : 0
Damaged sector count : 0
Track 02
Filename : /Users/anch/Music/FLAC/Luís Lopes Humanization 4tet - 2010 - Electricity [MP3 320]/02 - Jungle Gymnastics.mp3
/Users/anch/Music/FLAC/Luís Lopes Humanization 4tet - 2010 - Electricity [MP3 V0]/02 - Jungle Gymnastics.mp3
/Users/anch/Music/FLAC/Luís Lopes Humanization 4tet - 2010 - Electricity [FLAC]/02 - Jungle Gymnastics.flac
Track gain : -11.07 dB
Peak : 0.999969
CRC32 hash (test run) : FB68B33A
CRC32 hash : FB68B33A
CRC32 hash (skip zero) : 02634EA7
AccurateRip v1 signature : 99EA322A
AccurateRip v2 signature : 6B43389F
->Track not present in AccurateRip database.
Statistics
Read error : 0
Jitter error (maybe fixed) : 0
Retry sector count : 0
Damaged sector count : 0
Track 03
Filename : /Users/anch/Music/FLAC/Luís Lopes Humanization 4tet - 2010 - Electricity [MP3 320]/03 - Two Girls  .mp3
/Users/anch/Music/FLAC/Luís Lopes Humanization 4tet - 2010 - Electricity [MP3 V0]/03 - Two Girls  .mp3
/Users/anch/Music/FLAC/Luís Lopes Humanization 4tet - 2010 - Electricity [FLAC]/03 - Two Girls  .flac
Track gain : -10.40 dB
Peak : 0.999969
CRC32 hash (test run) : C1D47959
CRC32 hash : C1D47959
CRC32 hash (skip zero) : 4579FD1A
AccurateRip v1 signature : E8510654
AccurateRip v2 signature : 534737C6
->Track not present in AccurateRip database.
Statistics
Read error : 0
Jitter error (maybe fixed) : 0
Retry sector count : 0
Damaged sector count : 0
Track 04
Filename : /Users/anch/Music/FLAC/Luís Lopes Humanization 4tet - 2010 - Electricity [MP3 320]/04 - Effigy.mp3
/Users/anch/Music/FLAC/Luís Lopes Humanization 4tet - 2010 - Electricity [MP3 V0]/04 - Effigy.mp3
/Users/anch/Music/FLAC/Luís Lopes Humanization 4tet - 2010 - Electricity [FLAC]/04 - Effigy.flac
Track gain : -7.23 dB
Peak : 0.959869
CRC32 hash (test run) : 16C0179C
CRC32 hash : 16C0179C
CRC32 hash (skip zero) : B26E82F9
AccurateRip v1 signature : 8502EA47
AccurateRip v2 signature : 46209D61
->Track not present in AccurateRip database.
Statistics
Read error : 0
Jitter error (maybe fixed) : 0
Retry sector count : 0
Damaged sector count : 0
Track 05
Filename : /Users/anch/Music/FLAC/Luís Lopes Humanization 4tet - 2010 - Electricity [MP3 320]/05 - Procurei-Te Na Noite.mp3
/Users/anch/Music/FLAC/Luís Lopes Humanization 4tet - 2010 - Electricity [MP3 V0]/05 - Procurei-Te Na Noite.mp3
/Users/anch/Music/FLAC/Luís Lopes Humanization 4tet - 2010 - Electricity [FLAC]/05 - Procurei-Te Na Noite.flac
Track gain : -9.94 dB
Peak : 0.999969
CRC32 hash (test run) : CDC9F764
CRC32 hash : CDC9F764
CRC32 hash (skip zero) : 5342DBC1
AccurateRip v1 signature : 4B353E0A
AccurateRip v2 signature : E4A7E6AE
->Track not present in AccurateRip database.
Statistics
Read error : 0
Jitter error (maybe fixed) : 0
Retry sector count : 0
Damaged sector count : 0
Track 06
Filename : /Users/anch/Music/FLAC/Luís Lopes Humanization 4tet - 2010 - Electricity [MP3 320]/06 - Infidelities.mp3
/Users/anch/Music/FLAC/Luís Lopes Humanization 4tet - 2010 - Electricity [MP3 V0]/06 - Infidelities.mp3
/Users/anch/Music/FLAC/Luís Lopes Humanization 4tet - 2010 - Electricity [FLAC]/06 - Infidelities.flac
Track gain : -9.60 dB
Peak : 0.999969
CRC32 hash (test run) : 2858A95A
CRC32 hash : 2858A95A
CRC32 hash (skip zero) : A1C349F8
AccurateRip v1 signature : E3B5ED4E
AccurateRip v2 signature : 025383B6
->Track not present in AccurateRip database.
Statistics
Read error : 0
Jitter error (maybe fixed) : 0
Retry sector count : 0
Damaged sector count : 0
Track 07
Filename : /Users/anch/Music/FLAC/Luís Lopes Humanization 4tet - 2010 - Electricity [MP3 320]/07 - Eavesdropper (For Dennis Gonzalez) - Ruas Sentimentais.mp3
/Users/anch/Music/FLAC/Luís Lopes Humanization 4tet - 2010 - Electricity [MP3 V0]/07 - Eavesdropper (For Dennis Gonzalez) - Ruas Sentimentais.mp3
/Users/anch/Music/FLAC/Luís Lopes Humanization 4tet - 2010 - Electricity [FLAC]/07 - Eavesdropper (For Dennis Gonzalez) - Ruas Sentimentais.flac
Track gain : -9.71 dB
Peak : 0.999969
CRC32 hash (test run) : 5294BCC9
CRC32 hash : 5294BCC9
CRC32 hash (skip zero) : D9426A05
AccurateRip v1 signature : 4F071479
AccurateRip v2 signature : F3F7BCA2
->Track not present in AccurateRip database.
Statistics
Read error : 0
Jitter error (maybe fixed) : 0
Retry sector count : 0
Damaged sector count : 0
No errors occurred
End of status report
 
Содержание индексной карты (.CUE)
TITLE "Electricity"
PERFORMER "Luis Lopes Humanization 4tet"
REM GENRE "Free Jazz"
REM DATE "2010"
REM DISCID 4C0C1C07
REM REPLAYGAIN_ALBUM_GAIN -10.04 dB
REM REPLAYGAIN_ALBUM_PEAK 0.999969
FILE "01 - Dehumanization Blues.flac" WAVE
TRACK 01 AUDIO
TITLE "Dehumanization Blues"
PERFORMER "Luis Lopes Humanization 4tet"
FLAGS DCP
REM REPLAYGAIN_TRACK_GAIN -10.14 dB
REM REPLAYGAIN_TRACK_PEAK 0.999969
INDEX 01 00:00:00
FILE "02 - Jungle Gymnastics.flac" WAVE
TRACK 02 AUDIO
TITLE "Jungle Gymnastics"
PERFORMER "Luis Lopes Humanization 4tet"
FLAGS DCP
REM REPLAYGAIN_TRACK_GAIN -11.07 dB
REM REPLAYGAIN_TRACK_PEAK 0.999969
INDEX 01 00:00:00
FILE "03 - Two Girls.flac" WAVE
TRACK 03 AUDIO
TITLE "Two Girls"
PERFORMER "Luis Lopes Humanization 4tet"
FLAGS DCP
REM REPLAYGAIN_TRACK_GAIN -10.40 dB
REM REPLAYGAIN_TRACK_PEAK 0.999969
INDEX 01 00:00:00
FILE "04 - Effigy.flac" WAVE
TRACK 04 AUDIO
TITLE "Effigy"
PERFORMER "Luis Lopes Humanization 4tet"
FLAGS DCP
REM REPLAYGAIN_TRACK_GAIN -7.23 dB
REM REPLAYGAIN_TRACK_PEAK 0.959869
INDEX 01 00:00:00
FILE "05 - Procurei-Te Na Noite.flac" WAVE
TRACK 05 AUDIO
TITLE "Procurei-Te Na Noite"
PERFORMER "Luis Lopes Humanization 4tet"
FLAGS DCP
REM REPLAYGAIN_TRACK_GAIN -9.94 dB
REM REPLAYGAIN_TRACK_PEAK 0.999969
INDEX 01 00:00:00
FILE "06 - Infidelities.flac" WAVE
TRACK 06 AUDIO
TITLE "Infidelities"
PERFORMER "Luis Lopes Humanization 4tet"
FLAGS DCP
REM REPLAYGAIN_TRACK_GAIN -9.60 dB
REM REPLAYGAIN_TRACK_PEAK 0.999969
INDEX 01 00:00:00
FILE "07 - Eavesdropper (For Dennis Gonzalez) - Ruas Sentimentais.flac" WAVE
TRACK 07 AUDIO
TITLE "Eavesdropper (For Dennis Gonzalez) - Ruas Sentimentais"
PERFORMER "Luis Lopes Humanization 4tet"
FLAGS DCP
REM REPLAYGAIN_TRACK_GAIN -9.71 dB
REM REPLAYGAIN_TRACK_PEAK 0.999969
INDEX 01 00:00:00
По всем вопросам пишите личное сообщение пользователю M0p94ok.
09:27
196
Нет комментариев. Ваш будет первым!