Вы используете незарегистрированную версию компонента "Вкладки"!

Поиск

(Free Improvisation) [CD] Masayuki Takayanagi Angry Waves - 850113 - 1985 (2000 Japan Edition), FLAC (tracks+.cue), lossless

(Free Improvisation) [CD] Masayuki Takayanagi Angry Waves - 850113 - 1985 (2000 Japan Edition), FLAC (tracks+.cue), lossless
Треклист:
Masayuki Takayanagi Angry Waves - 850113
Жанр: Free Improvisation
Носитель: CD
Страна-производитель диска (релиза): Япония
Год издания: 2000
Издатель (лейбл): Meta Hanamaki Aketa
Номер по каталогу: MHACD-2501
Аудиокодек: FLAC (*.flac)
Тип рипа: tracks+.cue
Битрейт аудио: lossless
Продолжительность: 65:34
Источник (релизер): uaxuctum (what)
Наличие сканов в содержимом раздачи: нет
Треклист:
01. 850113 1 (15:20)
02. 850113 2 (17:47)
03. 850113 3 (15:19)
04. 850113 4 (17:08)
Состав:
Masayuki Takayanagi - electric guitar
Nobuyoshi Ino - bass
Hiroshi Yamazaki - drums
Recorded live at Seibu City 8 Hall, Hamamatsu on January 13, 1985.
 
Лог создания рипа
Exact Audio Copy V1.0 beta 3 from 29. August 2011
EAC extraction logfile from 20. December 2014, 19:43
Masayuki Takayanagi Angry Waves / 850113
Used drive : ATAPI iHOS104 Adapter: 1 ID: 1
Read mode : Secure
Utilize accurate stream : Yes
Defeat audio cache : Yes
Make use of C2 pointers : No
Read offset correction : 696
Overread into Lead-In and Lead-Out : No
Fill up missing offset samples with silence : Yes
Delete leading and trailing silent blocks : No
Null samples used in CRC calculations : Yes
Used interface : Native Win32 interface for Win NT & 2000
Gap handling : Appended to previous track
Used output format : User Defined Encoder
Selected bitrate : 1024 kBit/s
Quality : High
Add ID3 tag : No
Command line compressor : C:\Program Files (x86)\Exact Audio Copy\Flac\flac.exe
Additional command line options : -8 -V -T "ARTIST=%artist%" -T "TITLE=%title%" -T "ALBUM=%albumtitle%" -T "DATE=%year%" -T "TRACKNUMBER=%tracknr%" -T "GENRE=%genre%" -T "PERFORMER=%albuminterpret%" -T "COMPOSER=%composer%" %haslyrics%--tag-from-file=LYRICS="%lyricsfile%"%haslyrics% -T "ALBUMARTIST=%albumartist%" -T "DISCNUMBER=%cdnumber%" -T "TOTALDISCS=%totalcds%" -T "TOTALTRACKS=%numtracks%" -T "COMMENT=%comment%" %source% -o %dest%
TOC of the extracted CD
Track | Start | Length | Start sector | End sector
---------------------------------------------------------
1 | 0:00.00 | 15:20.07 | 0 | 69006
2 | 15:20.07 | 17:46.65 | 69007 | 149021
3 | 33:06.72 | 15:18.71 | 149022 | 217942
4 | 48:25.68 | 17:08.36 | 217943 | 295078
Track 1
Filename C:\EAC Rips\Masayuki Takayanagi Angry Waves - 850113 (2000) [FLAC]\01 - 850113 1.wav
Pre-gap length 0:00:02.00
Peak level 88.9 %
Extraction speed 4.6 X
Track quality 100.0 %
Test CRC AB78B9DD
Copy CRC AB78B9DD
Track not present in AccurateRip database
Copy OK
Track 2
Filename C:\EAC Rips\Masayuki Takayanagi Angry Waves - 850113 (2000) [FLAC]\02 - 850113 2.wav
Peak level 90.4 %
Extraction speed 5.7 X
Track quality 99.9 %
Test CRC 8865F99C
Copy CRC 8865F99C
Track not present in AccurateRip database
Copy OK
Track 3
Filename C:\EAC Rips\Masayuki Takayanagi Angry Waves - 850113 (2000) [FLAC]\03 - 850113 3.wav
Peak level 96.2 %
Extraction speed 6.5 X
Track quality 99.9 %
Test CRC E27F405E
Copy CRC E27F405E
Track not present in AccurateRip database
Copy OK
Track 4
Filename C:\EAC Rips\Masayuki Takayanagi Angry Waves - 850113 (2000) [FLAC]\04 - 850113 4.wav
Peak level 94.8 %
Extraction speed 7.8 X
Track quality 100.0 %
Test CRC 01F0C27B
Copy CRC 01F0C27B
Track not present in AccurateRip database
Copy OK
None of the tracks are present in the AccurateRip database
No errors occurred
End of status report
---- CUETools DB Plugin V2.1.3
[CTDB TOCID: Q_3X0mFLdZgEsTb_wrBaO2F_DB0-] disk not present in database, Submit result: Q_3X0mFLdZgEsTb_wrBaO2F_DB0- has been uploaded
==== Log checksum 3C4C33B3300C712D32F4ECFE20177B78765FEBFD52470FF9602820646F138DED ====
 
Содержание индексной карты (.CUE)
REM GENRE Jazz
REM DATE 1985
REM DISCID 3B0F5E04
REM COMMENT "ExactAudioCopy v1.0b3"
PERFORMER "Masayuki Takayanagi Angry Waves"
TITLE "850113"
FILE "01 - 850113 1.wav" WAVE
TRACK 01 AUDIO
TITLE "850113 1"
PERFORMER "Masayuki Takayanagi Angry Waves"
INDEX 01 00:00:00
FILE "02 - 850113 2.wav" WAVE
TRACK 02 AUDIO
TITLE "850113 2"
PERFORMER "Masayuki Takayanagi Angry Waves"
INDEX 01 00:00:00
FILE "03 - 850113 3.wav" WAVE
TRACK 03 AUDIO
TITLE "850113 3"
PERFORMER "Masayuki Takayanagi Angry Waves"
INDEX 01 00:00:00
FILE "04 - 850113 4.wav" WAVE
TRACK 04 AUDIO
TITLE "850113 4"
PERFORMER "Masayuki Takayanagi Angry Waves"
INDEX 01 00:00:00
 
Отчет CUETools
[CUETools log; Date: 17.02.2015 23:18:05; Version: 2.1.5]
[CTDB TOCID: Q_3X0mFLdZgEsTb_wrBaO2F_DB0-] found.
Track | CTDB Status
1 | (1/1) Accurately ripped
2 | (1/1) Accurately ripped
3 | (1/1) Accurately ripped
4 | (1/1) Accurately ripped
[AccurateRip ID: 000b27ab-002cbe18-3b0f5e04] disk not present in database.
Track Peak [ CRC32 ] [W/O NULL] [ LOG ]
-- 96,2 [1B5985F3] [2FD6CFDB]
01 88,9 [AB78B9DD] [20A12109] CRC32
02 90,4 [8865F99C] [2A80E937] CRC32
03 96,2 [E27F405E] [2855EABD] CRC32
04 94,8 [01F0C27B] [CD9C74D7] CRC32
По всем вопросам пишите личное сообщение пользователю M0p94ok.
09:28
167
Нет комментариев. Ваш будет первым!