Вы используете незарегистрированную версию компонента "Вкладки"!

Поиск

(Avant-Garde Jazz) Bruce Eisenbeil Sextet - Inner Constellation, Volume One - 2007, FLAC (tracks+.cue), lossless

(Avant-Garde Jazz) Bruce Eisenbeil Sextet - Inner Constellation, Volume One - 2007, FLAC (tracks+.cue), lossless
Треклист:
•Bruce Eisenbeil Sextet - Inner Constellation, Volume One•
Жанр: Avant-Garde Jazz
Страна-производитель диска: USA
Год издания: 2007
Издатель (лейбл): Nemu Records
Номер по каталогу: 007
Аудиокодек: FLAC (*.flac)
Тип рипа: tracks+.cue
Битрейт аудио: lossless
Продолжительность: 00:58:04
Источник (релизер): Рип с диска.
Наличие сканов в содержимом раздачи: да
Треклист:
01.Autumn Light {00:43}
02.Elastic Horizon {01:38}
03.Enter Fresh Juicy {00:57}
04.Three Uninvited Guests {01:21}
05.Clinging Fire {02:54}
06.Being Drawn {00:43}
07.Phat On The Runway {01:02}
08.Effigy {00:32}
09.Totem {00:22}
10.Mask In Profile {05:55}
11.Triple Astral Texture {01:54}
12.Walkabout {01:07}
13.Transformation {00:19}
14.Death Once Dead, No Dying Then {00:37}
15.Dream Breath {05:34}
16.Richter Smears {00:39}
17.Spiral Blue {01:57}
18.Wormhole Thief {05:48}
19.Red Pepper Pods, Add Wings To Them {00:32}
20.Dragonfly {01:37}
21.Eucalyptus {00:54}
22.Spice Enters The Groovy Night {00:57}
23.Autumn Clouds {00:41}
24.Burning Nest {02:41}
25.Keeping Still Mountain {01:04}
26.Inner Constellation {01:33}
27.Sonic Ocean {03:21}
28.Rain In The Face {03:24}
29.Cues To The Vagabond {03:48}
30.Receding Storm {03:17}
Personnel:
Bruce Eisenbeil - g
Tom Abbs - b
Nasheet Waits - dr
Jean Cook - violin
Nate Wooley - tp
Aaron Ali Shaikh - as
 
Лог создания рипа
Exact Audio Copy V1.0 beta 3 from 29. August 2011
Отчёт EAC об извлечении, выполненном 7. ноября 2012, 15:47
Bruce Eisenbeil Sextet / Inner Constellation: Vol. One
Дисковод: Optiarc DVD RW AD-5200A Adapter: 0 ID: 0
Режим чтения : Достоверность
Использование точного потока : Да
Отключение кэша аудио : Да
Использование указателей C2 : Нет
Коррекция смещения при чтении : 48
Способность читать области Lead-in и Lead-out : Нет
Заполнение пропущенных сэмплов тишиной : Да
Удаление блоков с тишиной в начале и конце : Нет
При вычислениях CRC использовались нулевые сэмплы : Да
Интерфейс : Встроенный Win32-интерфейс для Win NT/2000
Обработка зазоров : Добавлено к предыдущему треку
Выходной формат : Пользовательский кодировщик
Выбранный битрейт : 128 kBit/s
Качество : Высокий
Добавление ID3-тега : Нет
Утилита сжатия : C:\Program Files\Exact Audio Copy\Flac\flac.exe
Дополнительные параметры : -V -8 -T "Genre=%genre%" -T "Artist=%artist%" -T "Title=%title%" -T "Album=%albumtitle%" -T "Date=%year%" -T "Tracknumber=%tracknr%" -T "Comment=%comment%" %source%
TOC извлечённого CD
Трек | Старт | Длительность | Начальный сектор | Конечный сектор
---------------------------------------------------------------------
1 | 0:00.00 | 0:43.03 | 0 | 3227
2 | 0:43.03 | 1:38.21 | 3228 | 10598
3 | 2:21.24 | 0:57.29 | 10599 | 14902
4 | 3:18.53 | 1:21.02 | 14903 | 20979
5 | 4:39.55 | 2:54.36 | 20980 | 34065
6 | 7:34.16 | 0:43.58 | 34066 | 37348
7 | 8:17.74 | 1:02.38 | 37349 | 42036
8 | 9:20.37 | 0:32.32 | 42037 | 44468
9 | 9:52.69 | 0:22.17 | 44469 | 46135
10 | 10:15.11 | 5:55.29 | 46136 | 72789
11 | 16:10.40 | 1:54.56 | 72790 | 81395
12 | 18:05.21 | 1:07.22 | 81396 | 86442
13 | 19:12.43 | 0:19.05 | 86443 | 87872
14 | 19:31.48 | 0:37.43 | 87873 | 90690
15 | 20:09.16 | 5:34.33 | 90691 | 115773
16 | 25:43.49 | 0:39.42 | 115774 | 118740
17 | 26:23.16 | 1:57.72 | 118741 | 127587
18 | 28:21.13 | 5:48.69 | 127588 | 153756
19 | 34:10.07 | 0:32.63 | 153757 | 156219
20 | 34:42.70 | 1:37.05 | 156220 | 163499
21 | 36:20.00 | 0:54.53 | 163500 | 167602
22 | 37:14.53 | 0:57.00 | 167603 | 171877
23 | 38:11.53 | 0:41.35 | 171878 | 174987
24 | 38:53.13 | 2:41.59 | 174988 | 187121
25 | 41:34.72 | 1:04.55 | 187122 | 191976
26 | 42:39.52 | 1:33.13 | 191977 | 198964
27 | 44:12.65 | 3:21.01 | 198965 | 214040
28 | 47:33.66 | 3:24.68 | 214041 | 229408
29 | 50:58.59 | 3:48.25 | 229409 | 246533
30 | 54:47.09 | 3:17.01 | 246534 | 261309
Трек 1
Имя файла F:\2007.Bruce Eisenbeil Sextet - Inner Constellation, volume one\01. Autumn Light.wav
Длина предзазора 0:00:02.00
Пиковый уровень 83.8 %
Скорость извлечения 1.3 X
Качество трека 100.0 %
CRC теста D646C620
CRC копии D646C620
Точное извлечение (достоверность 2) [DE7526AC] (AR v1)
Копирование... OK
Трек 2
Имя файла F:\2007.Bruce Eisenbeil Sextet - Inner Constellation, volume one\02. Elastic Horizon.wav
Пиковый уровень 99.8 %
Скорость извлечения 1.4 X
Качество трека 99.8 %
CRC теста E68CB667
CRC копии E68CB667
Точное извлечение (достоверность 2) [F298C7F3] (AR v1)
Копирование... OK
Трек 3
Имя файла F:\2007.Bruce Eisenbeil Sextet - Inner Constellation, volume one\03. Enter Fresh Juicy.wav
Пиковый уровень 99.8 %
Скорость извлечения 1.6 X
Качество трека 100.0 %
CRC теста 1ED93BF9
CRC копии 1ED93BF9
Точное извлечение (достоверность 2) [2845B483] (AR v1)
Копирование... OK
Трек 4
Имя файла F:\2007.Bruce Eisenbeil Sextet - Inner Constellation, volume one\04. Three Uninvited Guests.wav
Пиковый уровень 99.8 %
Скорость извлечения 1.8 X
Качество трека 100.0 %
CRC теста E9CA1F16
CRC копии E9CA1F16
Точное извлечение (достоверность 2) [1A046B9D] (AR v1)
Копирование... OK
Трек 5
Имя файла F:\2007.Bruce Eisenbeil Sextet - Inner Constellation, volume one\05. Clinging Fire.wav
Пиковый уровень 99.8 %
Скорость извлечения 2.3 X
Качество трека 100.0 %
CRC теста B0E0E7D1
CRC копии B0E0E7D1
Точное извлечение (достоверность 2) [883AB032] (AR v1)
Копирование... OK
Трек 6
Имя файла F:\2007.Bruce Eisenbeil Sextet - Inner Constellation, volume one\06. Being Drawn.wav
Пиковый уровень 99.8 %
Скорость извлечения 1.6 X
Качество трека 100.0 %
CRC теста 2E69FECE
CRC копии 2E69FECE
Точное извлечение (достоверность 2) [9260B3F4] (AR v1)
Копирование... OK
Трек 7
Имя файла F:\2007.Bruce Eisenbeil Sextet - Inner Constellation, volume one\07. Phat On The Runway.wav
Пиковый уровень 99.8 %
Скорость извлечения 1.9 X
Качество трека 100.0 %
CRC теста 0E931C97
CRC копии 0E931C97
Точное извлечение (достоверность 2) [E2A2B7E4] (AR v1)
Копирование... OK
Трек 8
Имя файла F:\2007.Bruce Eisenbeil Sextet - Inner Constellation, volume one\08. Effigy.wav
Пиковый уровень 90.3 %
Скорость извлечения 1.4 X
Качество трека 100.0 %
CRC теста 0A9992B8
CRC копии 0A9992B8
Точное извлечение (достоверность 2) [687A07BB] (AR v1)
Копирование... OK
Трек 9
Имя файла F:\2007.Bruce Eisenbeil Sextet - Inner Constellation, volume one\09. Totem.wav
Пиковый уровень 82.7 %
Скорость извлечения 0.7 X
Качество трека 99.5 %
CRC теста 6A03B261
CRC копии 6A03B261
Точное извлечение (достоверность 2) [3888F580] (AR v1)
Копирование... OK
Трек 10
Имя файла F:\2007.Bruce Eisenbeil Sextet - Inner Constellation, volume one\10. Mask In Profile.wav
Пиковый уровень 99.8 %
Скорость извлечения 3.0 X
Качество трека 100.0 %
CRC теста EBF36E7D
CRC копии EBF36E7D
Точное извлечение (достоверность 2) [C70FE67D] (AR v1)
Копирование... OK
Трек 11
Имя файла F:\2007.Bruce Eisenbeil Sextet - Inner Constellation, volume one\11. Triple Astral Texture.wav
Пиковый уровень 99.8 %
Скорость извлечения 2.6 X
Качество трека 100.0 %
CRC теста 5CBCED2D
CRC копии 5CBCED2D
Точное извлечение (достоверность 2) [6514FC4B] (AR v1)
Копирование... OK
Трек 12
Имя файла F:\2007.Bruce Eisenbeil Sextet - Inner Constellation, volume one\12. Walkabout.wav
Пиковый уровень 88.9 %
Скорость извлечения 2.2 X
Качество трека 100.0 %
CRC теста 8D43B0F0
CRC копии 8D43B0F0
Точное извлечение (достоверность 2) [4CFE4C64] (AR v1)
Копирование... OK
Трек 13
Имя файла F:\2007.Bruce Eisenbeil Sextet - Inner Constellation, volume one\13. Transformation.wav
Пиковый уровень 99.8 %
Скорость извлечения 1.2 X
Качество трека 100.0 %
CRC теста 60BC1EB1
CRC копии 60BC1EB1
Точное извлечение (достоверность 2) [F41CAF48] (AR v1)
Копирование... OK
Трек 14
Имя файла F:\2007.Bruce Eisenbeil Sextet - Inner Constellation, volume one\14. Death Once Dead, No Dying Then.wav
Пиковый уровень 99.8 %
Скорость извлечения 1.8 X
Качество трека 100.0 %
CRC теста 4C783678
CRC копии 4C783678
Точное извлечение (достоверность 2) [54341DCC] (AR v1)
Копирование... OK
Трек 15
Имя файла F:\2007.Bruce Eisenbeil Sextet - Inner Constellation, volume one\15. Dream Breath.wav
Пиковый уровень 99.8 %
Скорость извлечения 3.4 X
Качество трека 100.0 %
CRC теста 6D581280
CRC копии 6D581280
Точное извлечение (достоверность 2) [467B0CC0] (AR v1)
Копирование... OK
Трек 16
Имя файла F:\2007.Bruce Eisenbeil Sextet - Inner Constellation, volume one\16. Richter Smears.wav
Пиковый уровень 99.8 %
Скорость извлечения 2.0 X
Качество трека 100.0 %
CRC теста 1993694A
CRC копии 1993694A
Точное извлечение (достоверность 2) [36175BB9] (AR v1)
Копирование... OK
Трек 17
Имя файла F:\2007.Bruce Eisenbeil Sextet - Inner Constellation, volume one\17. Spiral Blue.wav
Пиковый уровень 99.8 %
Скорость извлечения 3.0 X
Качество трека 100.0 %
CRC теста A4BA26E3
CRC копии A4BA26E3
Точное извлечение (достоверность 2) [D83231A0] (AR v1)
Копирование... OK
Трек 18
Имя файла F:\2007.Bruce Eisenbeil Sextet - Inner Constellation, volume one\18. Wormhole Thief.wav
Пиковый уровень 99.8 %
Скорость извлечения 3.3 X
Качество трека 99.9 %
CRC теста A98AADE8
CRC копии A98AADE8
Точное извлечение (достоверность 2) [054D86D3] (AR v1)
Копирование... OK
Трек 19
Имя файла F:\2007.Bruce Eisenbeil Sextet - Inner Constellation, volume one\19. Red Pepper Pods, Add Wings To Them.wav
Пиковый уровень 53.8 %
Скорость извлечения 1.3 X
Качество трека 99.6 %
CRC теста 87E5595C
CRC копии 87E5595C
Точное извлечение (достоверность 2) [BA27A3DB] (AR v1)
Копирование... OK
Трек 20
Имя файла F:\2007.Bruce Eisenbeil Sextet - Inner Constellation, volume one\20. Dragonfly.wav
Пиковый уровень 99.8 %
Скорость извлечения 3.0 X
Качество трека 100.0 %
CRC теста D7AF9B29
CRC копии D7AF9B29
Точное извлечение (достоверность 2) [38947832] (AR v1)
Копирование... OK
Трек 21
Имя файла F:\2007.Bruce Eisenbeil Sextet - Inner Constellation, volume one\21. Eucalyptus.wav
Пиковый уровень 80.2 %
Скорость извлечения 2.4 X
Качество трека 100.0 %
CRC теста 156632E4
CRC копии 156632E4
Точное извлечение (достоверность 2) [0FC3EB1F] (AR v1)
Копирование... OK
Трек 22
Имя файла F:\2007.Bruce Eisenbeil Sextet - Inner Constellation, volume one\22. Spice Enters The Groovy Night.wav
Пиковый уровень 99.8 %
Скорость извлечения 2.5 X
Качество трека 100.0 %
CRC теста F398C96C
CRC копии F398C96C
Точное извлечение (достоверность 2) [64E5AB18] (AR v1)
Копирование... OK
Трек 23
Имя файла F:\2007.Bruce Eisenbeil Sextet - Inner Constellation, volume one\23. Autumn Clouds.wav
Пиковый уровень 93.6 %
Скорость извлечения 1.5 X
Качество трека 99.7 %
CRC теста DBF5BA5B
CRC копии DBF5BA5B
Точное извлечение (достоверность 2) [BDFF6E85] (AR v1)
Копирование... OK
Трек 24
Имя файла F:\2007.Bruce Eisenbeil Sextet - Inner Constellation, volume one\24. Burning Nest.wav
Пиковый уровень 92.0 %
Скорость извлечения 3.3 X
Качество трека 100.0 %
CRC теста D4B7E0D5
CRC копии D4B7E0D5
Точное извлечение (достоверность 2) [A9479E3C] (AR v1)
Копирование... OK
Трек 25
Имя файла F:\2007.Bruce Eisenbeil Sextet - Inner Constellation, volume one\25. Keeping Still Mountain.wav
Пиковый уровень 99.8 %
Скорость извлечения 2.0 X
Качество трека 99.8 %
CRC теста 98CADBF5
CRC копии 98CADBF5
Точное извлечение (достоверность 2) [28136406] (AR v1)
Копирование... OK
Трек 26
Имя файла F:\2007.Bruce Eisenbeil Sextet - Inner Constellation, volume one\26. Inner Constellation.wav
Пиковый уровень 99.8 %
Скорость извлечения 2.9 X
Качество трека 100.0 %
CRC теста D1AB7E93
CRC копии D1AB7E93
Точное извлечение (достоверность 2) [3E462D7E] (AR v1)
Копирование... OK
Трек 27
Имя файла F:\2007.Bruce Eisenbeil Sextet - Inner Constellation, volume one\27. Sonic Ocean.wav
Пиковый уровень 99.8 %
Скорость извлечения 3.4 X
Качество трека 100.0 %
CRC теста AF9B3840
CRC копии AF9B3840
Точное извлечение (достоверность 2) [B2FE4CDD] (AR v1)
Копирование... OK
Трек 28
Имя файла F:\2007.Bruce Eisenbeil Sextet - Inner Constellation, volume one\28. Rain In The Face.wav
Длина предзазора 0:00:08.71
Пиковый уровень 99.8 %
Скорость извлечения 3.5 X
Качество трека 100.0 %
CRC теста A3E41C99
CRC копии A3E41C99
Точное извлечение (достоверность 2) [5B42F698] (AR v1)
Копирование... OK
Трек 29
Имя файла F:\2007.Bruce Eisenbeil Sextet - Inner Constellation, volume one\29. Cues To The Vagabond.wav
Длина предзазора 0:00:02.51
Пиковый уровень 99.8 %
Скорость извлечения 3.5 X
Качество трека 100.0 %
CRC теста D2516D22
CRC копии D2516D22
Точное извлечение (достоверность 2) [7664FCE8] (AR v1)
Копирование... OK
Трек 30
Имя файла F:\2007.Bruce Eisenbeil Sextet - Inner Constellation, volume one\30. Receding Storm.wav
Длина предзазора 0:00:03.10
Пиковый уровень 94.0 %
Скорость извлечения 3.4 X
Качество трека 100.0 %
CRC теста CF679888
CRC копии CF679888
Точное извлечение (достоверность 2) [F7905A65] (AR v1)
Копирование... OK
Все треки извлечены точно
Ошибок не произошло
Конец отчёта
==== Контрольная сумма отчёта 424F8DE15CC3F0CCBA2C0D606D0FA9368BEFC8FCD42359F250BE134861FC224B ====
 
Содержание индексной карты (.CUE)
REM GENRE Jazz
REM DATE 2007
REM DISCID 930D9C1E
REM COMMENT "ExactAudioCopy v1.0b3"
PERFORMER "Bruce Eisenbeil Sextet"
TITLE "Inner Constellation: Vol. One"
FILE "01. Autumn Light.wav" WAVE
TRACK 01 AUDIO
TITLE "Autumn Light"
PERFORMER "Bruce Eisenbeil Sextet"
INDEX 01 00:00:00
FILE "02. Elastic Horizon.wav" WAVE
TRACK 02 AUDIO
TITLE "Elastic Horizon"
PERFORMER "Bruce Eisenbeil Sextet"
INDEX 01 00:00:00
FILE "03. Enter Fresh Juicy.wav" WAVE
TRACK 03 AUDIO
TITLE "Enter Fresh Juicy"
PERFORMER "Bruce Eisenbeil Sextet"
INDEX 01 00:00:00
FILE "04. Three Uninvited Guests.wav" WAVE
TRACK 04 AUDIO
TITLE "Three Uninvited Guests"
PERFORMER "Bruce Eisenbeil Sextet"
INDEX 01 00:00:00
FILE "05. Clinging Fire.wav" WAVE
TRACK 05 AUDIO
TITLE "Clinging Fire"
PERFORMER "Bruce Eisenbeil Sextet"
INDEX 01 00:00:00
FILE "06. Being Drawn.wav" WAVE
TRACK 06 AUDIO
TITLE "Being Drawn"
PERFORMER "Bruce Eisenbeil Sextet"
INDEX 01 00:00:00
FILE "07. Phat On The Runway.wav" WAVE
TRACK 07 AUDIO
TITLE "Phat On The Runway"
PERFORMER "Bruce Eisenbeil Sextet"
INDEX 01 00:00:00
FILE "08. Effigy.wav" WAVE
TRACK 08 AUDIO
TITLE "Effigy"
PERFORMER "Bruce Eisenbeil Sextet"
INDEX 01 00:00:00
FILE "09. Totem.wav" WAVE
TRACK 09 AUDIO
TITLE "Totem"
PERFORMER "Bruce Eisenbeil Sextet"
INDEX 01 00:00:00
FILE "10. Mask In Profile.wav" WAVE
TRACK 10 AUDIO
TITLE "Mask In Profile"
PERFORMER "Bruce Eisenbeil Sextet"
INDEX 01 00:00:00
FILE "11. Triple Astral Texture.wav" WAVE
TRACK 11 AUDIO
TITLE "Triple Astral Texture"
PERFORMER "Bruce Eisenbeil Sextet"
INDEX 01 00:00:00
FILE "12. Walkabout.wav" WAVE
TRACK 12 AUDIO
TITLE "Walkabout"
PERFORMER "Bruce Eisenbeil Sextet"
INDEX 01 00:00:00
FILE "13. Transformation.wav" WAVE
TRACK 13 AUDIO
TITLE "Transformation"
PERFORMER "Bruce Eisenbeil Sextet"
INDEX 01 00:00:00
FILE "14. Death Once Dead, No Dying Then.wav" WAVE
TRACK 14 AUDIO
TITLE "Death Once Dead, No Dying Then"
PERFORMER "Bruce Eisenbeil Sextet"
INDEX 01 00:00:00
FILE "15. Dream Breath.wav" WAVE
TRACK 15 AUDIO
TITLE "Dream Breath"
PERFORMER "Bruce Eisenbeil Sextet"
INDEX 01 00:00:00
FILE "16. Richter Smears.wav" WAVE
TRACK 16 AUDIO
TITLE "Richter Smears"
PERFORMER "Bruce Eisenbeil Sextet"
INDEX 01 00:00:00
FILE "17. Spiral Blue.wav" WAVE
TRACK 17 AUDIO
TITLE "Spiral Blue"
PERFORMER "Bruce Eisenbeil Sextet"
INDEX 01 00:00:00
FILE "18. Wormhole Thief.wav" WAVE
TRACK 18 AUDIO
TITLE "Wormhole Thief"
PERFORMER "Bruce Eisenbeil Sextet"
INDEX 01 00:00:00
FILE "19. Red Pepper Pods, Add Wings To Them.wav" WAVE
TRACK 19 AUDIO
TITLE "Red Pepper Pods, Add Wings To Them"
PERFORMER "Bruce Eisenbeil Sextet"
INDEX 01 00:00:00
FILE "20. Dragonfly.wav" WAVE
TRACK 20 AUDIO
TITLE "Dragonfly"
PERFORMER "Bruce Eisenbeil Sextet"
INDEX 01 00:00:00
FILE "21. Eucalyptus.wav" WAVE
TRACK 21 AUDIO
TITLE "Eucalyptus"
PERFORMER "Bruce Eisenbeil Sextet"
INDEX 01 00:00:00
FILE "22. Spice Enters The Groovy Night.wav" WAVE
TRACK 22 AUDIO
TITLE "Spice Enters The Groovy Night"
PERFORMER "Bruce Eisenbeil Sextet"
INDEX 01 00:00:00
FILE "23. Autumn Clouds.wav" WAVE
TRACK 23 AUDIO
TITLE "Autumn Clouds"
PERFORMER "Bruce Eisenbeil Sextet"
INDEX 01 00:00:00
FILE "24. Burning Nest.wav" WAVE
TRACK 24 AUDIO
TITLE "Burning Nest"
PERFORMER "Bruce Eisenbeil Sextet"
INDEX 01 00:00:00
FILE "25. Keeping Still Mountain.wav" WAVE
TRACK 25 AUDIO
TITLE "Keeping Still Mountain"
PERFORMER "Bruce Eisenbeil Sextet"
INDEX 01 00:00:00
FILE "26. Inner Constellation.wav" WAVE
TRACK 26 AUDIO
TITLE "Inner Constellation"
PERFORMER "Bruce Eisenbeil Sextet"
INDEX 01 00:00:00
FILE "27. Sonic Ocean.wav" WAVE
TRACK 27 AUDIO
TITLE "Sonic Ocean"
PERFORMER "Bruce Eisenbeil Sextet"
INDEX 01 00:00:00
TRACK 28 AUDIO
TITLE "Rain In The Face"
PERFORMER "Bruce Eisenbeil Sextet"
INDEX 00 03:12:05
FILE "28. Rain In The Face.wav" WAVE
INDEX 01 00:00:00
TRACK 29 AUDIO
TITLE "Cues To The Vagabond"
PERFORMER "Bruce Eisenbeil Sextet"
INDEX 00 03:22:17
FILE "29. Cues To The Vagabond.wav" WAVE
INDEX 01 00:00:00
TRACK 30 AUDIO
TITLE "Receding Storm"
PERFORMER "Bruce Eisenbeil Sextet"
INDEX 00 03:45:15
FILE "30. Receding Storm.wav" WAVE
INDEX 01 00:00:00
Any questions -> support@pro-jazz.com. По всем вопросам пишите -> support@pro-jazz.com
05:27
174
Нет комментариев. Ваш будет первым!