Вы используете незарегистрированную версию компонента "Вкладки"!

Поиск

(free jazz) Marshall Allen with Lou Grassi's PoBand - PoZest 2000, CIMP 207, FLAC (tracks+.cue), lossless

(free jazz) Marshall Allen with Lou Grassi's PoBand - PoZest 2000, CIMP 207, FLAC (tracks+.cue), lossless
Треклист:


Marshall Allen with Lou Grassi's PoBand - PoZest 2000, CIMP 207

Жанр: free jazz
Год выпуска: 2000
Издатель (лейбл):CIMP 207
Формат: FLAC (tracks+.cue)
Битрейт аудио: lossless
Продолжительность 1`09`35
Источник: WEB, what.cd
Alto Saxophone, Flute – Marshall Allen
Bass – Wilber Morris
Clarinet, Whistle – Perry Robinson
Drums – Lou Grassi
Trombone – Steve Swell
Trumpet – Paul Smoker
Recorded at The Spirit Room, Rossie, NY, May 10 & 11, 1999

tracks

1 Bird Symphony 32:52
2 (Midnight) Blues 14:42
3 Soft Winds 10:24
4 LouRa 11:35


 
.accurip
[CUETools log; Date: 27/01/14 00:20:31; Version: 2.1.4]
[CTDB TOCID: .rvmpxE9XCI0pwl7GUZvf_12kmE-] disk not present in database.
[AccurateRip ID: 000e491f-00362358-3d104f04] found.
Track [ CRC | V2 ] Status
01 [750f926a|94f7fbe9] (0+1/1) Accurately ripped
02 [90ee9dc8|f02c16c8] (0+1/1) Accurately ripped
03 [5d683129|6c0ff13d] (0+1/1) Accurately ripped
04 [d55f10eb|357babb0] (0+1/1) Accurately ripped
Track Peak [ CRC32 ] [W/O NULL]
-- 100.0 [E6B41B7D] [733EE966]
01 100.0 [72D7DD5F] [028E78FC]
02 100.0 [DA74C8F9] [059E4B43]
03 36.9 [8C3842D4] [BFA97B7F]
04 100.0 [619E20F1] [98CA2F61]
 
.cue
PERFORMER "Marshall Allen with Lou Grassi's PoBand"
TITLE "PoZest"
FILE "01 - Bird Symphony.flac" WAVE
TRACK 01 AUDIO
TITLE "Bird Symphony"
PERFORMER "Marshall Allen with Lou Grassi's PoBand"
INDEX 01 00:00:00
TRACK 02 AUDIO
TITLE "(Midnight) Blues"
PERFORMER "Marshall Allen with Lou Grassi's PoBand"
INDEX 00 32:49:70
FILE "02 - (Midnight) Blues.flac" WAVE
INDEX 01 00:00:00
TRACK 03 AUDIO
TITLE "Soft Winds"
PERFORMER "Marshall Allen with Lou Grassi's PoBand"
INDEX 00 14:39:53
FILE "03 - Soft Winds.flac" WAVE
INDEX 01 00:00:00
TRACK 04 AUDIO
TITLE "LouRa"
PERFORMER "Marshall Allen with Lou Grassi's PoBand"
INDEX 00 10:22:00
FILE "04 - LouRa.flac" WAVE
INDEX 01 00:00:00

другие релизы
Any questions -> support@pro-jazz.com. По всем вопросам пишите -> support@pro-jazz.com
05:26
178
Нет комментариев. Ваш будет первым!