Вы используете незарегистрированную версию компонента "Вкладки"!

Поиск

(avant-garde jazz) Projeto B - Andarilho - 2005, (image+.cue), lossless

(avant-garde jazz) Projeto B - Andarilho - 2005, (image+.cue), lossless
Треклист:
Projeto B / Andarilho
Жанр: avant-garde jazz
Страна-производитель диска: Brazilia
Год издания: 2005
Издатель (лейбл): Cooperdisc
Номер по каталогу: LMCD0184
Страна: Brazilia
Аудиокодек: FLAC (*.flac)
Тип рипа: image+.cue
Битрейт аудио: lossless
Источник (релизер): Собственный рип
Наличие сканов в содержимом раздачи: да
Треклист:
1. da augusta ao centro
2. choro №1
3. preludio
4. andarilho
5. st. gaudens in the boston common
6. enfase
7. peixe azul
8. preludo
9. dobas de prata
10. b.do limao
11. vamu la
12. andarilho №2
13. fonte
14. paulista
 
Лог создания рипа
Exact Audio Copy V1.0 beta 3 from 29. August 2011
EAC extraction logfile from 13. November 2012, 22:28
Projeto B / Andarilho
Used drive : Optiarc DVD RW AD-7243S Adapter: 0 ID: 1
Read mode : Secure
Utilize accurate stream : Yes
Defeat audio cache : Yes
Make use of C2 pointers : No
Read offset correction : 48
Overread into Lead-In and Lead-Out : No
Fill up missing offset samples with silence : Yes
Delete leading and trailing silent blocks : No
Null samples used in CRC calculations : Yes
Used interface : Native Win32 interface for Win NT & 2000
Used output format : User Defined Encoder
Selected bitrate : 768 kBit/s
Quality : High
Add ID3 tag : No
Command line compressor : C:\Program Files\Exact Audio Copy\FLAC\FLAC.EXE
Additional command line options : V -8 -T "Genre=%genre%" -T "Artist=%artist%" -T "Title=%title%" -T "Album=%albumtitle%" -T "Date=%year%" -T "Tracknumber=%tracknr%" -T "Comment=%comment%" %source%
TOC of the extracted CD
Track | Start | Length | Start sector | End sector
---------------------------------------------------------
1 | 0:00.00 | 3:35.72 | 0 | 16196
2 | 3:35.72 | 4:50.63 | 16197 | 38009
3 | 8:26.60 | 1:37.15 | 38010 | 45299
4 | 10:04.00 | 4:10.72 | 45300 | 64121
5 | 14:14.72 | 4:43.50 | 64122 | 85396
6 | 18:58.47 | 7:21.45 | 85397 | 118516
7 | 26:20.17 | 5:21.55 | 118517 | 142646
8 | 31:41.72 | 2:14.48 | 142647 | 152744
9 | 33:56.45 | 4:37.37 | 152745 | 173556
10 | 38:34.07 | 7:12.18 | 173557 | 205974
11 | 45:46.25 | 7:15.67 | 205975 | 238666
12 | 53:02.17 | 4:58.35 | 238667 | 261051
13 | 58:00.52 | 7:41.48 | 261052 | 295674
14 | 65:42.25 | 1:02.05 | 295675 | 300329
Range status and errors
Selected range
Filename C:\Documents and Settings\S\Мои документы\Torrent раздача\Projeto B - Andarilho.wav
Peak level 98.8 %
Extraction speed 4.1 X
Range quality 100.0 %
Test CRC AB0FB6FD
Copy CRC AB0FB6FD
Copy OK
No errors occurred
AccurateRip summary
Track 1 not present in database
Track 2 not present in database
Track 3 not present in database
Track 4 not present in database
Track 5 not present in database
Track 6 not present in database
Track 7 not present in database
Track 8 not present in database
Track 9 not present in database
Track 10 not present in database
Track 11 not present in database
Track 12 not present in database
Track 13 not present in database
Track 14 not present in database
None of the tracks are present in the AccurateRip database
End of status report
==== Log checksum 2AA8C2B1406AB885AABDB4C8BD62B0C094D6E722CF3F882B950317DB80CA6BE5 ====
 
Содержание индексной карты (.CUE)
REM GENRE Jazz-Fusion
REM DATE 2005
REM DISCID BE0FA40E
REM COMMENT "ExactAudioCopy v1.0b3"
PERFORMER "Projeto B"
TITLE "Andarilho"
FILE "Projeto B - Andarilho.flac" WAVE
TRACK 01 AUDIO
TITLE "Da Augusta Ao Centro"
PERFORMER "Projeto B"
ISRC BRFLJ0400027
INDEX 01 00:00:00
TRACK 02 AUDIO
TITLE "Choro N°1"
PERFORMER "Projeto B"
ISRC BRFLJ0400026
INDEX 01 03:35:72
TRACK 03 AUDIO
TITLE "Andarilho - Preludio"
PERFORMER "Projeto B"
ISRC BRFLJ0400025
INDEX 01 08:26:60
TRACK 04 AUDIO
TITLE "Andarilho"
PERFORMER "Projeto B"
ISRC BRFLJ0400024
INDEX 01 10:04:00
TRACK 05 AUDIO
TITLE "St. Gaudens In the Boston Common"
PERFORMER "Projeto B"
ISRC BRFLJ0400023
INDEX 01 14:14:72
TRACK 06 AUDIO
TITLE "Enfase"
PERFORMER "Projeto B"
ISRC BRFLJ0400022
INDEX 01 18:58:47
TRACK 07 AUDIO
TITLE "Piexe Azul"
PERFORMER "Projeto B"
ISRC BRFLJ0400021
INDEX 01 26:20:17
TRACK 08 AUDIO
TITLE "Bodas De Prata - Preludio"
PERFORMER "Projeto B"
ISRC BRFLJ0400020
INDEX 01 31:41:72
TRACK 09 AUDIO
TITLE "Bodas De Prata"
PERFORMER "Projeto B"
ISRC BRFLJ0400014
INDEX 01 33:56:45
TRACK 10 AUDIO
TITLE "B. Do Limao"
PERFORMER "Projeto B"
ISRC BRFLJ0400019
INDEX 01 38:34:07
TRACK 11 AUDIO
TITLE "Vamu La"
PERFORMER "Projeto B"
ISRC BRFLJ0400018
INDEX 01 45:46:25
TRACK 12 AUDIO
TITLE "Andarilho N°2"
PERFORMER "Projeto B"
ISRC BRFLJ0400017
INDEX 01 53:02:17
TRACK 13 AUDIO
TITLE "Fonte"
PERFORMER "Projeto B"
ISRC BRFLJ0400016
INDEX 01 58:00:52
TRACK 14 AUDIO
TITLE "Paulista"
PERFORMER "Projeto B"
ISRC BRFLJ0400015
INDEX 01 65:42:25
 
Состав
yvo ursini - guitarra
leonardo muniz correa - sax, clarinete
amilcar rodrigues - trompete, cornete e flugelhorn
beto sporleder - sax. flauta
vicente falek brauer - piano e rhodes
henrique alves - baixo
mauricio caetano - bateria
Any questions -> support@pro-jazz.com. По всем вопросам пишите -> support@pro-jazz.com
05:28
173
Нет комментариев. Ваш будет первым!