Вы используете незарегистрированную версию компонента "Вкладки"!

Поиск

(Avant-Garde Jazz, Big Band) [CD] The Sun Ra Arkestra - Springtime In Chicago (2CD) - 1978, FLAC (tracks+.cue), lossless

(Avant-Garde Jazz, Big Band) [CD] The Sun Ra Arkestra - Springtime In Chicago (2CD) - 1978, FLAC (tracks+.cue), lossless
Треклист:
The Sun Ra Arkestra / Springtime In Chicago (2CD)
Жанр: Avant-Garde Jazz, Big Band
Носитель: CD
Страна-производитель диска: UK
Год издания: 2006
Издатель (лейбл): Leo Records / Golden Years Of New Jazz
Номер по каталогу: GY 26/27
Страна: US
Аудиокодек: FLAC (*.flac)
Тип рипа: tracks+.cue
Битрейт аудио: lossless
Продолжительность: 44:35 + 54:10
Источник (релизер): свой фирменный диск
Наличие сканов в содержимом раздачи:
Треклист:
 
CD1
1. Untitled Improvisation 6:09
2. Springtime In Chicago 7:20
3. Astro Black 2:41
4. The World Is Waiting For The Sunrise 1:01
5. Discipline 27 3:25
6. The Shadow World 17:19
7. Yeah Man! 3:09
8. Queer Notions 3:26
 
CD2
1. Big John's Special 3:25
2. Somewhere Over The Rainbow 7:35
3. Lights On A Satellite 6:38
4. Body And Soul 10:01
5. King Porter Stomp 3:59
6. Second Stop Is Jupiter 6:37
7. Space Is The Place 5:00
8. Enlightenment 2:24
9. Next Stop Mars 0:57
10. Calling Planet Earth 7:25
 
Лог создания рипа
 
CD1
Exact Audio Copy V1.0 beta 3 from 29. August 2011
EAC extraction logfile from 25. November 2013, 21:53
The Sun Ra Arkestra / Springtime In Chicago CD1
Used drive : PIONEER DVD-RW DVR-115D Adapter: 0 ID: 0
Read mode : Secure
Utilize accurate stream : Yes
Defeat audio cache : Yes
Make use of C2 pointers : No
Read offset correction : 48
Overread into Lead-In and Lead-Out : No
Fill up missing offset samples with silence : Yes
Delete leading and trailing silent blocks : No
Null samples used in CRC calculations : Yes
Used interface : Installed external ASPI interface
Gap handling : Appended to previous track
Used output format : User Defined Encoder
Selected bitrate : 896 kBit/s
Quality : High
Add ID3 tag : No
Command line compressor : C:\Program Files\Exact Audio Copy\FLAC\FLAC.EXE
Additional command line options : -6 -V -T "ARTIST=%artist%" -T "TITLE=%title%" -T "ALBUM=%albumtitle%" -T "DATE=%year%" -T "TRACKNUMBER=%tracknr%" -T "GENRE=%genre%" -T "COMMENT=%comment%" -T "BAND=%albuminterpret%" -T "COMPOSER=%composer%" %haslyrics%--tag-from-file=LYRICS="%lyricsfile%"%haslyrics% -T "DISCNUMBER=%cdnumber%" -T "TOTALDISCS=%totalcds%" -T "TOTALTRACKS=%numtracks%" %hascover%--picture="%coverfile%"%hascover% %source% -o %dest%
TOC of the extracted CD
Track | Start | Length | Start sector | End sector
---------------------------------------------------------
1 | 0:00.00 | 6:09.53 | 0 | 27727
2 | 6:09.53 | 7:21.16 | 27728 | 60818
3 | 13:30.69 | 2:41.68 | 60819 | 72961
4 | 16:12.62 | 1:01.43 | 72962 | 77579
5 | 17:14.30 | 3:25.67 | 77580 | 93021
6 | 20:40.22 | 17:19.10 | 93022 | 170956
7 | 37:59.32 | 3:09.46 | 170957 | 185177
8 | 41:09.03 | 3:26.42 | 185178 | 200669
Track 1
Filename D:\zzz\01 - Untitled Improvisation.wav
Pre-gap length 0:00:02.00
Peak level 96.3 %
Extraction speed 4.9 X
Track quality 100.0 %
Test CRC 9176F430
Copy CRC 9176F430
Cannot be verified as accurate (confidence 1) [4144B59D], AccurateRip returned [D634B8A9] (AR v2)
Copy OK
Track 2
Filename D:\zzz\02 - Springtime In Chicago.wav
Peak level 96.6 %
Extraction speed 5.3 X
Track quality 99.9 %
Test CRC 9E68DE18
Copy CRC 9E68DE18
Cannot be verified as accurate (confidence 1) [69DEE2B6], AccurateRip returned [25262A80] (AR v2)
Copy OK
Track 3
Filename D:\zzz\03 - Astro Black.wav
Peak level 96.6 %
Extraction speed 5.4 X
Track quality 100.0 %
Test CRC 8E51794B
Copy CRC 8E51794B
Cannot be verified as accurate (confidence 1) [8127C7C6], AccurateRip returned [F77CB5D8] (AR v2)
Copy OK
Track 4
Filename D:\zzz\04 - The World Is Waiting For The Sunrise.wav
Peak level 96.4 %
Extraction speed 4.3 X
Track quality 100.0 %
Test CRC 0B0FC2D9
Copy CRC 0B0FC2D9
Cannot be verified as accurate (confidence 1) [E006384C], AccurateRip returned [61450CFD] (AR v2)
Copy OK
Track 5
Filename D:\zzz\05 - Discipline 27.wav
Peak level 96.6 %
Extraction speed 6.0 X
Track quality 100.0 %
Test CRC 7CC1617C
Copy CRC 7CC1617C
Cannot be verified as accurate (confidence 1) [CC082510], AccurateRip returned [9155BE7E] (AR v2)
Copy OK
Track 6
Filename D:\zzz\06 - The Shadow World.wav
Peak level 96.6 %
Extraction speed 7.3 X
Track quality 99.9 %
Test CRC E5AF7BEF
Copy CRC E5AF7BEF
Cannot be verified as accurate (confidence 1) [B006D72B], AccurateRip returned [55A514A7] (AR v2)
Copy OK
Track 7
Filename D:\zzz\07 - Yeah Man!.wav
Peak level 96.6 %
Extraction speed 6.9 X
Track quality 100.0 %
Test CRC AABEF806
Copy CRC AABEF806
Cannot be verified as accurate (confidence 1) [4B49C776], AccurateRip returned [04601878] (AR v2)
Copy OK
Track 8
Filename D:\zzz\08 - Queer Notions.wav
Peak level 96.6 %
Extraction speed 6.8 X
Track quality 100.0 %
Test CRC 08E18B54
Copy CRC 08E18B54
Cannot be verified as accurate (confidence 1) [551547BF], AccurateRip returned [2FF54893] (AR v2)
Copy OK
No tracks could be verified as accurate
You may have a different pressing from the one(s) in the database
No errors occurred
End of status report
==== Log checksum 478493E5C11DDF4CB94DB2EBD4DCE169EF8B2F1224A2238AE64641868DB182C9 ====
 
CD2
Exact Audio Copy V1.0 beta 3 from 29. August 2011
EAC extraction logfile from 25. November 2013, 23:31
The Sun Ra Arkestra / Springtime In Chicago CD2
Used drive : PIONEER DVD-RW DVR-115D Adapter: 0 ID: 0
Read mode : Secure
Utilize accurate stream : Yes
Defeat audio cache : Yes
Make use of C2 pointers : No
Read offset correction : 48
Overread into Lead-In and Lead-Out : No
Fill up missing offset samples with silence : Yes
Delete leading and trailing silent blocks : No
Null samples used in CRC calculations : Yes
Used interface : Installed external ASPI interface
Gap handling : Appended to previous track
Used output format : User Defined Encoder
Selected bitrate : 896 kBit/s
Quality : High
Add ID3 tag : No
Command line compressor : C:\Program Files\Exact Audio Copy\FLAC\FLAC.EXE
Additional command line options : -6 -V -T "ARTIST=%artist%" -T "TITLE=%title%" -T "ALBUM=%albumtitle%" -T "DATE=%year%" -T "TRACKNUMBER=%tracknr%" -T "GENRE=%genre%" -T "COMMENT=%comment%" -T "BAND=%albuminterpret%" -T "COMPOSER=%composer%" %haslyrics%--tag-from-file=LYRICS="%lyricsfile%"%haslyrics% -T "DISCNUMBER=%cdnumber%" -T "TOTALDISCS=%totalcds%" -T "TOTALTRACKS=%numtracks%" %hascover%--picture="%coverfile%"%hascover% %source% -o %dest%
TOC of the extracted CD
Track | Start | Length | Start sector | End sector
---------------------------------------------------------
1 | 0:00.00 | 3:25.10 | 0 | 15384
2 | 3:25.10 | 7:36.49 | 15385 | 49633
3 | 11:01.59 | 6:38.12 | 49634 | 79495
4 | 17:39.71 | 10:03.07 | 79496 | 124727
5 | 27:43.03 | 3:59.28 | 124728 | 142680
6 | 31:42.31 | 6:37.61 | 142681 | 172516
7 | 38:20.17 | 5:00.61 | 172517 | 195077
8 | 43:21.03 | 2:24.69 | 195078 | 205946
9 | 45:45.72 | 0:57.20 | 205947 | 210241
10 | 46:43.17 | 7:26.58 | 210242 | 243749
Track 1
Filename D:\zzz\01 - Big John's Special.wav
Pre-gap length 0:00:02.00
Peak level 96.6 %
Extraction speed 4.2 X
Track quality 100.0 %
Test CRC 7CE90C47
Copy CRC 7CE90C47
Accurately ripped (confidence 3) [75BD12A8] (AR v1)
Copy OK
Track 2
Filename D:\zzz\02 - Somewhere Over The Rainbow.wav
Peak level 96.6 %
Extraction speed 5.2 X
Track quality 100.0 %
Test CRC A8837AB2
Copy CRC A8837AB2
Accurately ripped (confidence 3) [15DB15FB] (AR v1)
Copy OK
Track 3
Filename D:\zzz\03 - Lights On A Satellite.wav
Peak level 96.6 %
Extraction speed 5.8 X
Track quality 100.0 %
Test CRC F722CA00
Copy CRC F722CA00
Accurately ripped (confidence 1) [598747A2] (AR v1)
Copy OK
Track 4
Filename D:\zzz\04 - Body And Soul.wav
Peak level 96.6 %
Extraction speed 6.7 X
Track quality 100.0 %
Test CRC 7507A95A
Copy CRC 7507A95A
Accurately ripped (confidence 2) [FA1206B0] (AR v1)
Copy OK
Track 5
Filename D:\zzz\05 - King Porter Stomp.wav
Peak level 96.6 %
Extraction speed 5.9 X
Track quality 99.9 %
Test CRC 0291E676
Copy CRC 0291E676
Accurately ripped (confidence 3) [BD143B6F] (AR v1)
Copy OK
Track 6
Filename D:\zzz\06 - Second Stop Is Jupiter.wav
Peak level 96.6 %
Extraction speed 7.4 X
Track quality 100.0 %
Test CRC 00BC2D68
Copy CRC 00BC2D68
Accurately ripped (confidence 2) [884E85AB] (AR v1)
Copy OK
Track 7
Filename D:\zzz\07 - Space Is The Place.wav
Peak level 96.6 %
Extraction speed 7.4 X
Track quality 100.0 %
Test CRC BE02A7A1
Copy CRC BE02A7A1
Accurately ripped (confidence 2) [60527112] (AR v1)
Copy OK
Track 8
Filename D:\zzz\08 - Enlightenment.wav
Peak level 96.6 %
Extraction speed 6.9 X
Track quality 100.0 %
Test CRC B273BB01
Copy CRC B273BB01
Accurately ripped (confidence 2) [59B02121] (AR v1)
Copy OK
Track 9
Filename D:\zzz\09 - Next Stop Mars.wav
Peak level 96.6 %
Extraction speed 5.3 X
Track quality 100.0 %
Test CRC 1BE2A0AA
Copy CRC 1BE2A0AA
Accurately ripped (confidence 2) [ACDE6A53] (AR v1)
Copy OK
Track 10
Filename D:\zzz\10 - Calling Planet Earth.wav
Peak level 96.6 %
Extraction speed 8.3 X
Track quality 100.0 %
Test CRC E3936109
Copy CRC E3936109
Accurately ripped (confidence 2) [5FDB96DE] (AR v1)
Copy OK
All tracks accurately ripped
No errors occurred
End of status report
==== Log checksum C0D0258B2341798E14C04A04185E79C0C96B97CC26658FA15656C6186FF65BD4 ====
 
Содержание индексной карты (.CUE)
 
CD1
REM GENRE "Space Jazz"
REM DATE 2006
REM DISCID 5A0A7308
REM COMMENT "ExactAudioCopy v1.0b3"
PERFORMER "The Sun Ra Arkestra"
TITLE "Springtime In Chicago CD1"
FILE "01 - Untitled Improvisation.wav" WAVE
TRACK 01 AUDIO
TITLE "Untitled Improvisation"
PERFORMER "The Sun Ra Arkestra"
INDEX 01 00:00:00
FILE "02 - Springtime In Chicago.wav" WAVE
TRACK 02 AUDIO
TITLE "Springtime In Chicago"
PERFORMER "The Sun Ra Arkestra"
INDEX 01 00:00:00
FILE "03 - Astro Black.wav" WAVE
TRACK 03 AUDIO
TITLE "Astro Black"
PERFORMER "The Sun Ra Arkestra"
INDEX 01 00:00:00
FILE "04 - The World Is Waiting For The Sunrise.wav" WAVE
TRACK 04 AUDIO
TITLE "The World Is Waiting For The Sunrise"
PERFORMER "The Sun Ra Arkestra"
INDEX 01 00:00:00
FILE "05 - Discipline 27.wav" WAVE
TRACK 05 AUDIO
TITLE "Discipline 27"
PERFORMER "The Sun Ra Arkestra"
INDEX 01 00:00:00
FILE "06 - The Shadow World.wav" WAVE
TRACK 06 AUDIO
TITLE "The Shadow World"
PERFORMER "The Sun Ra Arkestra"
INDEX 01 00:00:00
FILE "07 - Yeah Man!.wav" WAVE
TRACK 07 AUDIO
TITLE "Yeah Man!"
PERFORMER "The Sun Ra Arkestra"
INDEX 01 00:00:00
FILE "08 - Queer Notions.wav" WAVE
TRACK 08 AUDIO
TITLE "Queer Notions"
PERFORMER "The Sun Ra Arkestra"
INDEX 01 00:00:00
 
CD2
REM GENRE "Space Jazz"
REM DATE 2006
REM DISCID 770CB20A
REM COMMENT "ExactAudioCopy v1.0b3"
PERFORMER "The Sun Ra Arkestra"
TITLE "Springtime In Chicago CD2"
FILE "01 - Big John's Special.wav" WAVE
TRACK 01 AUDIO
TITLE "Big John's Special"
PERFORMER "The Sun Ra Arkestra"
INDEX 01 00:00:00
FILE "02 - Somewhere Over The Rainbow.wav" WAVE
TRACK 02 AUDIO
TITLE "Somewhere Over The Rainbow"
PERFORMER "The Sun Ra Arkestra"
INDEX 01 00:00:00
FILE "03 - Lights On A Satellite.wav" WAVE
TRACK 03 AUDIO
TITLE "Lights On A Satellite"
PERFORMER "The Sun Ra Arkestra"
INDEX 01 00:00:00
FILE "04 - Body And Soul.wav" WAVE
TRACK 04 AUDIO
TITLE "Body And Soul"
PERFORMER "The Sun Ra Arkestra"
INDEX 01 00:00:00
FILE "05 - King Porter Stomp.wav" WAVE
TRACK 05 AUDIO
TITLE "King Porter Stomp"
PERFORMER "The Sun Ra Arkestra"
INDEX 01 00:00:00
FILE "06 - Second Stop Is Jupiter.wav" WAVE
TRACK 06 AUDIO
TITLE "Second Stop Is Jupiter"
PERFORMER "The Sun Ra Arkestra"
INDEX 01 00:00:00
FILE "07 - Space Is The Place.wav" WAVE
TRACK 07 AUDIO
TITLE "Space Is The Place"
PERFORMER "The Sun Ra Arkestra"
INDEX 01 00:00:00
FILE "08 - Enlightenment.wav" WAVE
TRACK 08 AUDIO
TITLE "Enlightenment"
PERFORMER "The Sun Ra Arkestra"
INDEX 01 00:00:00
FILE "09 - Next Stop Mars.wav" WAVE
TRACK 09 AUDIO
TITLE "Next Stop Mars"
PERFORMER "The Sun Ra Arkestra"
INDEX 01 00:00:00
FILE "10 - Calling Planet Earth.wav" WAVE
TRACK 10 AUDIO
TITLE "Calling Planet Earth"
PERFORMER "The Sun Ra Arkestra"
INDEX 01 00:00:00
 
Лог проверки качества
d:\>d:\aucdtect -d/-m0 d:\zzz\*.wav
auCDtect: CD records authenticity detector, version 0.8.2
Copyright (c) 2004 Oleg Berngardt. All rights reserved.
Copyright (c) 2004 Alexander Djourik. All rights reserved.
------------------------------------------------------------
Processing file: [01. Big John's Special.wav]
------------------------------------------------------------
This track looks like MPEG with probability 89%
------------------------------------------------------------
Processing file: [01. Untitled Improvisation.wav]
------------------------------------------------------------
This track looks like MPEG with probability 100%
------------------------------------------------------------
Processing file: [02. Somewhere Over The Rainbow.wav]
------------------------------------------------------------
This track looks like MPEG with probability 100%
------------------------------------------------------------
Processing file: [02. Springtime In Chicago.wav]
------------------------------------------------------------
This track looks like MPEG with probability 100%
------------------------------------------------------------
Processing file: [03. Astro Black.wav]
------------------------------------------------------------
This track looks like MPEG with probability 100%
------------------------------------------------------------
Processing file: [03. Lights On A Satellite.wav]
------------------------------------------------------------
This track looks like MPEG with probability 100%
------------------------------------------------------------
Processing file: [04. Body And Soul.wav]
------------------------------------------------------------
This track looks like MPEG with probability 99%
------------------------------------------------------------
Processing file: [04. The World Is Waiting For The Sunrise.wav]
------------------------------------------------------------
This track looks like MPEG with probability 100%
------------------------------------------------------------
Processing file: [05. Discipline 27.wav]
------------------------------------------------------------
This track looks like MPEG with probability 100%
------------------------------------------------------------
Processing file: [05. King Porter Stomp.wav]
------------------------------------------------------------
This track looks like MPEG with probability 93%
------------------------------------------------------------
Processing file: [06. Second Stop Is Jupiter.wav]
------------------------------------------------------------
This track looks like MPEG with probability 100%
------------------------------------------------------------
Processing file: [06. The Shadow World.wav]
------------------------------------------------------------
This track looks like MPEG with probability 100%
------------------------------------------------------------
Processing file: [07. Space Is The Place.wav]
------------------------------------------------------------
This track looks like MPEG with probability 100%
------------------------------------------------------------
Processing file: [07. Yeah Man!.wav]
------------------------------------------------------------
This track looks like MPEG with probability 100%
------------------------------------------------------------
Processing file: [08. Enlightenment.wav]
------------------------------------------------------------
This track looks like MPEG with probability 89%
------------------------------------------------------------
Processing file: [08. Queer Notions.wav]
------------------------------------------------------------
This track looks like MPEG with probability 100%
------------------------------------------------------------
Processing file: [09. Next Stop Mars.wav]
------------------------------------------------------------
This track looks like MPEG with probability 100%
------------------------------------------------------------
Processing file: [10. Calling Planet Earth.wav]
------------------------------------------------------------
This track looks like MPEG with probability 89%
------------------------------------------------------------
Final Conclusion:
------------------------------------------------------------
These tracks looks like MPEGs with probability 100%
Доп. информация:
 
Album Info
(Sun Ra), except
(Sissle/Henderson) - 1.7
(Coleman Hawkins) - 1.8
(Henderson) - 2.1
(Arlen/Harburg) - 2.2
(Heyman/Green/Sour/Eaton) - 2.4
(Morton) - 2.5
(Dotson Hobart Jr./Sun Ra) - 2.8
Recording is from the Waitawhile Sun Ra Archive, Vol. 2
Recorded live in Chicago on September 25, 1978
Recording engineer: unknown
Remastered & edited by Harry "Magician" Fulcher
Front cover photo by Lukas Lindenmaier
Design by Lora Denis
Special thanks to Hartmut Geerken
Produced by Leo Feigin
 
Состав
Sun Ra: org,synth,beam
John Gilmore: ts,cl,timbales,voc
Marshall Allen: as,piccolo
Danny Davis: as,fl
Eloe Omoe (Leroy Taylor): bcl,fl
Danny Ray Thompson: bs,fl
James Jacson: bassoon,fl,egyptian infinity drum
Michael Ray: tp
Eddie Gale: tp
Walter Miller: tp
Damon Choice: vib
Atakatune (Stanley Morgan): conga
Dale Williams: eg
Luqman Ali (Edward Skinner): dr
June Tyson: voc
Any questions -> support@pro-jazz.com. По всем вопросам пишите -> support@pro-jazz.com
21:03
265
Нет комментариев. Ваш будет первым!