Вы используете незарегистрированную версию компонента "Вкладки"!

Поиск

(Avant-Garde Jazz) Ben Syversen - Cracked Vessel - 2010, FLAC (tracks+.cue), lossless

(Avant-Garde Jazz) Ben Syversen - Cracked Vessel - 2010, FLAC (tracks+.cue), lossless
Треклист:
Ben Syversen - Cracked Vessel
Жанр: Avant-Garde Jazz
Страна-производитель диска: США
Год издания: 2010
Издатель (лейбл): Bensyversen
Аудиокодек: FLAC (*.flac)
Тип рипа: tracks+.cue
Битрейт аудио: lossless
Продолжительность: 49:43
Источник (релизер): lindinalwa (what)
Наличие сканов в содержимом раздачи: да
Треклист:
01. Frontman (Syversen-Naylor-Gustin) - 2:04
02. Weird Science (Syversen) - 3:54
03. Bad Idea (Syversen) - 8:34
04. Untitled (Syversen) - 5:00
05. Krazzle (Syversen) - 5:31
06. End of Time (Syversen) - 6:00
07. From the Abyss (Syversen) - 8:31
08. Apparition (Syversen-Naylor-Gustin) - 5:04
09. Fried Fruit (Syversen) - 5:05
Состав:
Ben Syversen - trumpet
Xander Naylor - guitar
Jeremy Gustin - drums
Recorded at Happy House, Brooklyn, NY in March 2010.
 
Лог создания рипа
Exact Audio Copy V0.99 prebeta 5 from 4. May 2009
EAC extraction logfile from 17. March 2011, 18:22
Ben Syversen / Cracked Vessel
Used drive : Optiarc DVD RW AD-7243S Adapter: 0 ID: 1
Read mode : Secure
Utilize accurate stream : Yes
Defeat audio cache : Yes
Make use of C2 pointers : No
Read offset correction : 48
Overread into Lead-In and Lead-Out : No
Fill up missing offset samples with silence : Yes
Delete leading and trailing silent blocks : No
Null samples used in CRC calculations : Yes
Used interface : Native Win32 interface for Win NT & 2000
Gap handling : Appended to previous track
Used output format : User Defined Encoder
Selected bitrate : 768 kBit/s
Quality : High
Add ID3 tag : No
Command line compressor : C:\Program Files\Exact Audio Copy\FLAC\FLAC.EXE
Additional command line options : -6 -V -T "ARTIST=%a" -T "TITLE=%t" -T "ALBUM=%g" -T "DATE=%y" -T "TRACKNUMBER=%n" -T "GENRE=%m" -T "COMMENT=%e" %s -o %d
TOC of the extracted CD
Track | Start | Length | Start sector | End sector
---------------------------------------------------------
1 | 0:00.00 | 2:03.64 | 0 | 9288
2 | 2:03.64 | 3:53.38 | 9289 | 26801
3 | 5:57.27 | 8:33.45 | 26802 | 65321
4 | 14:30.72 | 4:59.66 | 65322 | 87812
5 | 19:30.63 | 5:30.63 | 87813 | 112625
6 | 25:01.51 | 5:59.63 | 112626 | 139613
7 | 31:01.39 | 8:31.05 | 139614 | 177943
8 | 39:32.44 | 5:04.07 | 177944 | 200750
9 | 44:36.51 | 5:05.21 | 200751 | 223646
Track 1
Filename C:\Documents and Settings\S\Мои документы\Torrent раздача\01.Ben Syversen-Fronumann.wav
Pre-gap length 0:00:02.00
Peak level 98.8 %
Track quality 99.9 %
Test CRC 0C91E5F9
Copy CRC 0C91E5F9
Track not present in AccurateRip database
Copy OK
Track 2
Filename C:\Documents and Settings\S\Мои документы\Torrent раздача\02.Ben Syversen-Weird Science.wav
Pre-gap length 0:00:02.33
Peak level 98.9 %
Track quality 100.0 %
Test CRC C3650416
Copy CRC C3650416
Track not present in AccurateRip database
Copy OK
Track 3
Filename C:\Documents and Settings\S\Мои документы\Torrent раздача\03.Ben Syversen-Bad Idea.wav
Pre-gap length 0:00:02.00
Peak level 99.9 %
Track quality 100.0 %
Test CRC C0D954CC
Copy CRC C0D954CC
Track not present in AccurateRip database
Copy OK
Track 4
Filename C:\Documents and Settings\S\Мои документы\Torrent раздача\04.Ben Syversen-Untitled.wav
Pre-gap length 0:00:02.44
Peak level 99.9 %
Track quality 100.0 %
Test CRC ADE09C51
Copy CRC ADE09C51
Track not present in AccurateRip database
Copy OK
Track 5
Filename C:\Documents and Settings\S\Мои документы\Torrent раздача\05.Ben Syversen-Krazzle.wav
Pre-gap length 0:00:02.40
Peak level 98.9 %
Track quality 100.0 %
Test CRC 4044299D
Copy CRC 4044299D
Track not present in AccurateRip database
Copy OK
Track 6
Filename C:\Documents and Settings\S\Мои документы\Torrent раздача\06.Ben Syversen-End of Time.wav
Pre-gap length 0:00:03.10
Peak level 98.8 %
Track quality 100.0 %
Test CRC 487FBAAC
Copy CRC 487FBAAC
Track not present in AccurateRip database
Copy OK
Track 7
Filename C:\Documents and Settings\S\Мои документы\Torrent раздача\07.Ben Syversen-From the Abyss.wav
Pre-gap length 0:00:02.30
Peak level 98.9 %
Track quality 100.0 %
Test CRC E79E3898
Copy CRC E79E3898
Track not present in AccurateRip database
Copy OK
Track 8
Filename C:\Documents and Settings\S\Мои документы\Torrent раздача\08.Ben Syversen-Apparition.wav
Pre-gap length 0:00:02.74
Peak level 98.8 %
Track quality 100.0 %
Test CRC 0802FE77
Copy CRC 0802FE77
Track not present in AccurateRip database
Copy OK
Track 9
Filename C:\Documents and Settings\S\Мои документы\Torrent раздача\09.Ben Syversen-Fried Fruit.wav
Pre-gap length 0:00:04.64
Peak level 98.8 %
Track quality 100.0 %
Test CRC EFE30C4E
Copy CRC EFE30C4E
Track not present in AccurateRip database
Copy OK
None of the tracks are present in the AccurateRip database
No errors occurred
End of status report
 
Содержание индексной карты (.CUE)
REM GENRE Jazz
REM DATE 2010
REM DISCID 790BA509
REM COMMENT "ExactAudioCopy v0.99pb5"
PERFORMER "Ben Syversen"
TITLE "Cracked Vessel"
FILE "01 - Frontman.wav" WAVE
TRACK 01 AUDIO
TITLE "Frontman"
PERFORMER "Ben Syversen"
INDEX 01 00:00:00
TRACK 02 AUDIO
TITLE "Weird Science"
PERFORMER "Ben Syversen"
INDEX 00 02:01:31
FILE "02 - Weird Science.wav" WAVE
INDEX 01 00:00:00
TRACK 03 AUDIO
TITLE "Bad Idea"
PERFORMER "Ben Syversen"
INDEX 00 03:51:38
FILE "03 - Bad Idea.wav" WAVE
INDEX 01 00:00:00
TRACK 04 AUDIO
TITLE "Untitled"
PERFORMER "Ben Syversen"
INDEX 00 08:31:01
FILE "04 - Untitled.wav" WAVE
INDEX 01 00:00:00
TRACK 05 AUDIO
TITLE "Krazzle"
PERFORMER "Ben Syversen"
INDEX 00 04:57:26
FILE "05 - Krazzle.wav" WAVE
INDEX 01 00:00:00
TRACK 06 AUDIO
TITLE "End of Time"
PERFORMER "Ben Syversen"
INDEX 00 05:27:53
FILE "06 - End of Time.wav" WAVE
INDEX 01 00:00:00
TRACK 07 AUDIO
TITLE "From the Abyss"
PERFORMER "Ben Syversen"
INDEX 00 05:57:33
FILE "07 - From the Abyss.wav" WAVE
INDEX 01 00:00:00
TRACK 08 AUDIO
TITLE "Apparition"
PERFORMER "Ben Syversen"
INDEX 00 08:28:06
FILE "08 - Apparition.wav" WAVE
INDEX 01 00:00:00
TRACK 09 AUDIO
TITLE "Fried Fruit"
PERFORMER "Ben Syversen"
INDEX 00 04:59:18
FILE "09 - Fried Fruit.wav" WAVE
INDEX 01 00:00:00
 
Отчет CUETools
[CUETools log; Date: 15.09.2013 15:18:15; Version: 2.1.4]
[CTDB TOCID: uOyVDA_5XpPaK2r7ajo_zMOOhQw-] disk not present in database.
[AccurateRip ID: 000fed60-0078d645-790ba509] disk not present in database.
Track Peak [ CRC32 ] [W/O NULL] [ LOG ]
-- 99,9 [B7FF6DE1] [0182AE40]
01 98,8 [0C91E5F9] [4CF49189] CRC32
02 98,9 [C3650416] [9E2B74B9] CRC32
03 99,9 [C0D954CC] [446FE1DC] CRC32
04 99,9 [ADE09C51] [42E8BD08] CRC32
05 98,9 [4044299D] [9D668249] CRC32
06 98,8 [487FBAAC] [BF6C2497] CRC32
07 98,8 [E79E3898] [BDEE830B] CRC32
08 98,8 [0802FE77] [F2758C35] CRC32
09 98,8 [EFE30C4E] [E0ED43BD] CRC32
 
Об альбоме (сборнике)
If you fancy yourself one who is willing to venture into unchartered waters, we suggest that you listen to Cracked Vessel, a new release from Brooklyn-based musician and composer Ben Syversen. If you are not adventurous, listen anyway. It will do you good! Our ocean journey begins at Happy House in Brooklyn, with guitarist Xander Naylor and drummer Jeremy Gustin accompanying Mr. Syversen. The three collaborate on the raucous “Frontman” (track #1), setting us up for “Weird Science” (track 2), that takes us on a contrapuntal ride into a “Bad Idea” (track 3). Here plaintive trumpet sounds progress to a scratchy background, and we sail on to a strong vibrato trumpet blast. In “Untitled” (track 4), we are treated to an extended guitar performance punctuated by a wistful trumpet melody. Just when we are almost lulled to sleep, we’re introduced to “Krazzle” (track 5), a potpourri of crinkly trumpet blasts underscored by Jeremy Gustin’s drum and cymbal work. So you think you’ve heard enough? Maybe, maybe not! Track 6 is entitled “End of Time” where we encounter the weirdest sounds thus far and a trumpet riff suggestive of a dying and flatulent whale. Ben and company do not let us “go gently into that good night” as there is a rousing coda before we find ourselves down in the depths where sound emanates “From the Abyss” (track 7). Here, at first, the rudder of Ben’s trumpet moves gently from side to side (reminiscent of bars of music from John Coltrane’s “Seraphic Light” performance), keeping us from becoming entrenched on the bottom of the ocean, progressing to a staccato trill. Before long, several bars of muted trumpet and softly strummed guitar prepare us for a good night’s rest. We may be resigned to enter “Davy Jones’ Locker,” but the tempo gathers just enough momentum to prepare us for the penultimate track “Apparition” (#8). Ghostly sounds make one’s skin crawl here, but I suspect no one who has traveled this far in Cracked Vessel’s anything-goes journey will actually despair. Those who hang on are rewarded by the spicy final track (#9) entitled “Fried Fruit.” In short, board Cracked Vessel and immerse yourself in a vast ocean of innovation, and travel over a long-submerged land mass of creativity. You may at times be mystified, but you won’t be bored.
По всем вопросам пишите личное сообщение пользователю M0p94ok.
18:11
198
Нет комментариев. Ваш будет первым!