Вы используете незарегистрированную версию компонента "Вкладки"!

Поиск

(Contemporary Jazz, ACT Music) Jens Thomas - Plays Ennio Morricone – You Can't Keep a Good Cowboy Down - 2000, FLAC (tracks+.cue), lossless

(Contemporary Jazz, ACT Music) Jens Thomas - Plays Ennio Morricone – You Can't Keep a Good Cowboy Down - 2000, FLAC (tracks+.cue), lossless
Издатель (лейбл):
Треклист:
Jens Thomas / Plays Ennio Morricone – You Can’t Keep a Good Cowboy Down
Жанр: Contemporary Jazz, ACT Music
Страна-производитель диска: Germany
Год издания: 2000
Издатель (лейбл): ACT Music
Номер по каталогу: ACT 9273-2
Аудиокодек: FLAC (*.flac)
Тип рипа: tracks+.cue
Битрейт аудио: lossless
Продолжительность: 1:01:20
Источник (релизер): Max Monteiro
Наличие сканов в содержимом раздачи: нет
Треклист:
01. Overture to You Can’t Keep a Good Cowboy Down (Jens Thomas) 3:23
02. The Man with the Harmonica*, ** (Morricone) 4:55
03. The Good, the Bad and the Ugly (Morricone) 3:04
04. Cockeye’s Song (Morricone) 6:41
05. One Upon a Time in America*, ** (Morricone) 3:47
06. Deborah’s Theme (Morricone) 5:05
07. The Battle of Laatzen (Jens Thomas) 4:45
08. Once Upon a Time in the West (Morricone) 8:50
09. For Maestro Morricone*, ** (Jens Thomas) 3:42
10. Poverty (Morricone) 6:31
11. Pioggia* (Jens Thomas) 3:04
12. Here’s to You (Morricone / Baez) 7:33
Recorded at Rainbow Studios, Oslo, Norway on July 26th and at Park Studios, Tutzing, Germany on October 18th, 1999.
Jens Thomas – Piano
Paolo Fresu* – Trumpet, Fluegelhorn
Antonello Salis** – Accordion
 
Лог создания рипа
Exact Audio Copy V1.0 beta 3 from 29. August 2011
EAC extraction logfile from 13. September 2013, 18:02
Jens Thomas / Plays Ennio Morricone - You Can't Keep a Good Cowboy Down
Used drive : SlimtypeeNAU508 5 Adapter: 1 ID: 0
Read mode : Secure
Utilize accurate stream : Yes
Defeat audio cache : Yes
Make use of C2 pointers : No
Read offset correction : 6
Overread into Lead-In and Lead-Out : No
Fill up missing offset samples with silence : Yes
Delete leading and trailing silent blocks : No
Null samples used in CRC calculations : Yes
Used interface : Native Win32 interface for Win NT & 2000
Gap handling : Appended to previous track
Used output format : User Defined Encoder
Selected bitrate : 768 kBit/s
Quality : High
Add ID3 tag : No
Command line compressor : C:\Program Files (x86)\Exact Audio Copy\Flac\flac.exe
Additional command line options : -8 -V -T "ARTIST=%artist%" -T "TITLE=%title%" -T "ALBUM=%albumtitle%" -T "DATE=%year%" -T "TRACKNUMBER=%tracknr%" -T "GENRE=%genre%" -T "PERFORMER=%albuminterpret%" -T "COMPOSER=%composer%" %haslyrics%--tag-from-file=LYRICS="%lyricsfile%"%haslyrics% -T "ALBUMARTIST=%albumartist%" -T "DISCNUMBER=%cdnumber%" -T "TOTALDISCS=%totalcds%" -T "TOTALTRACKS=%numtracks%" -T "COMMENT=%comment%" %source% -o %dest%
TOC of the extracted CD
Track | Start | Length | Start sector | End sector
---------------------------------------------------------
1 | 0:00.00 | 3:23.10 | 0 | 15234
2 | 3:23.10 | 4:55.27 | 15235 | 37386
3 | 8:18.37 | 3:04.05 | 37387 | 51191
4 | 11:22.42 | 6:40.55 | 51192 | 81246
5 | 18:03.22 | 3:47.18 | 81247 | 98289
6 | 21:50.40 | 5:05.12 | 98290 | 121176
7 | 26:55.52 | 4:45.08 | 121177 | 142559
8 | 31:40.60 | 8:49.57 | 142560 | 182291
9 | 40:30.42 | 3:41.38 | 182292 | 198904
10 | 44:12.05 | 6:31.07 | 198905 | 228236
11 | 50:43.12 | 3:04.20 | 228237 | 242056
12 | 53:47.32 | 7:32.48 | 242057 | 276004
Track 1
Filename C:\EAC rips\01 - Overture to You Can't Keep a Good Cowboy Down.wav
Pre-gap length 0:00:02.00
Peak level 99.9 %
Extraction speed 2.0 X
Track quality 100.0 %
Test CRC 64BFB63E
Copy CRC 64BFB63E
Accurately ripped (confidence 10) [E0311A68] (AR v2)
Copy OK
Track 2
Filename C:\EAC rips\02 - The Man with the Harmonica.wav
Peak level 87.9 %
Extraction speed 2.3 X
Track quality 100.0 %
Test CRC B509D6AC
Copy CRC B509D6AC
Accurately ripped (confidence 9) [9213509A] (AR v2)
Copy OK
Track 3
Filename C:\EAC rips\03 - The Good, the Bad and the Ugly.wav
Pre-gap length 0:00:02.55
Peak level 99.9 %
Extraction speed 2.4 X
Track quality 100.0 %
Test CRC A400F075
Copy CRC A400F075
Accurately ripped (confidence 8) [6F057753] (AR v2)
Copy OK
Track 4
Filename C:\EAC rips\04 - Cockeye's Song.wav
Pre-gap length 0:00:04.17
Peak level 99.9 %
Extraction speed 2.6 X
Track quality 99.9 %
Test CRC 64EBA5C2
Copy CRC 64EBA5C2
Accurately ripped (confidence 8) [21E015D2] (AR v2)
Copy OK
Track 5
Filename C:\EAC rips\05 - Once Upon a Time in America.wav
Pre-gap length 0:00:02.65
Peak level 99.9 %
Extraction speed 3.0 X
Track quality 100.0 %
Test CRC DD21E42A
Copy CRC DD21E42A
Accurately ripped (confidence 8) [ACF5C3AA] (AR v2)
Copy OK
Track 6
Filename C:\EAC rips\06 - Deborah's Theme.wav
Pre-gap length 0:00:03.10
Peak level 85.1 %
Extraction speed 3.3 X
Track quality 100.0 %
Test CRC 5D77C86D
Copy CRC 5D77C86D
Accurately ripped (confidence 9) [3553A0D8] (AR v2)
Copy OK
Track 7
Filename C:\EAC rips\07 - The Battle of Laatzen.wav
Pre-gap length 0:00:03.37
Peak level 100.0 %
Extraction speed 3.5 X
Track quality 100.0 %
Test CRC D2A4C54D
Copy CRC D2A4C54D
Accurately ripped (confidence 8) [DB1E21B8] (AR v2)
Copy OK
Track 8
Filename C:\EAC rips\08 - Once Upon a Time in the West.wav
Pre-gap length 0:00:03.18
Peak level 99.9 %
Extraction speed 3.9 X
Track quality 100.0 %
Test CRC B84EBF3E
Copy CRC B84EBF3E
Accurately ripped (confidence 9) [57B5FBA7] (AR v2)
Copy OK
Track 9
Filename C:\EAC rips\09 - For Maestro Morricone.wav
Pre-gap length 0:00:03.52
Peak level 99.9 %
Extraction speed 3.8 X
Track quality 100.0 %
Test CRC F795268D
Copy CRC F795268D
Accurately ripped (confidence 8) [DCAD6590] (AR v2)
Copy OK
Track 10
Filename C:\EAC rips\10 - Poverty.wav
Pre-gap length 0:00:02.58
Peak level 99.9 %
Extraction speed 3.7 X
Track quality 99.9 %
Test CRC 18EEBCB9
Copy CRC 18EEBCB9
Accurately ripped (confidence 8) [995E1A31] (AR v2)
Copy OK
Track 11
Filename C:\EAC rips\11 - Pioggia.wav
Pre-gap length 0:00:04.15
Peak level 51.0 %
Extraction speed 3.1 X
Track quality 99.9 %
Test CRC 2A5C7F0B
Copy CRC 2A5C7F0B
Accurately ripped (confidence 8) [977C1C80] (AR v2)
Copy OK
Track 12
Filename C:\EAC rips\12 - Here's to You.wav
Pre-gap length 0:00:04.52
Peak level 100.0 %
Extraction speed 4.5 X
Track quality 100.0 %
Test CRC CAA6D79C
Copy CRC CAA6D79C
Accurately ripped (confidence 8) [0C18114A] (AR v2)
Copy OK
All tracks accurately ripped
No errors occurred
End of status report
---- CUETools DB Plugin V2.1.4
[CTDB TOCID: 5wsx2eiUhz2Ez.NJHgvur7pve94-] found
Submit result: 5wsx2eiUhz2Ez.NJHgvur7pve94- has been confirmed
Track | CTDB Status
1 | (2/2) Accurately ripped
2 | (2/2) Accurately ripped
3 | (2/2) Accurately ripped
4 | (2/2) Accurately ripped
5 | (2/2) Accurately ripped
6 | (2/2) Accurately ripped
7 | (2/2) Accurately ripped
8 | (2/2) Accurately ripped
9 | (2/2) Accurately ripped
10 | (2/2) Accurately ripped
11 | (2/2) Accurately ripped
12 | (2/2) Accurately ripped
==== Log checksum 9B0F61F6E81056A1A8673F400DFC3B1D14B26FCBC129FC356B509DCABC253BBD ====
 
Содержание индексной карты (.CUE)
REM GENRE Jazz
REM DATE 2000
REM DISCID 880E600C
REM COMMENT "ExactAudioCopy v1.0b3"
PERFORMER "Jens Thomas"
TITLE "Plays Ennio Morricone - You Can't Keep a Good Cowboy Down"
FILE "01 - Overture to You Can't Keep a Good Cowboy Down.wav" WAVE
TRACK 01 AUDIO
TITLE "Overture to You Can't Keep a Good Cowboy Down"
PERFORMER "Jens Thomas"
ISRC DEA899901630
INDEX 01 00:00:00
FILE "02 - The Man with the Harmonica.wav" WAVE
TRACK 02 AUDIO
TITLE "The Man with the Harmonica"
PERFORMER "Jens Thomas"
ISRC DEA899901640
INDEX 01 00:00:00
TRACK 03 AUDIO
TITLE "The Good, the Bad and the Ugly"
PERFORMER "Jens Thomas"
ISRC DEA899901650
INDEX 00 04:52:47
FILE "03 - The Good, the Bad and the Ugly.wav" WAVE
INDEX 01 00:00:00
TRACK 04 AUDIO
TITLE "Cockeye's Song"
PERFORMER "Jens Thomas"
ISRC DEA899901660
INDEX 00 02:59:63
FILE "04 - Cockeye's Song.wav" WAVE
INDEX 01 00:00:00
TRACK 05 AUDIO
TITLE "Once Upon a Time in America"
PERFORMER "Jens Thomas"
ISRC DEA899901670
INDEX 00 06:37:65
FILE "05 - Once Upon a Time in America.wav" WAVE
INDEX 01 00:00:00
TRACK 06 AUDIO
TITLE "Deborah's Theme"
PERFORMER "Jens Thomas"
ISRC DEA899901680
INDEX 00 03:44:08
FILE "06 - Deborah's Theme.wav" WAVE
INDEX 01 00:00:00
TRACK 07 AUDIO
TITLE "The Battle of Laatzen"
PERFORMER "Jens Thomas"
ISRC DEA899901690
INDEX 00 05:01:50
FILE "07 - The Battle of Laatzen.wav" WAVE
INDEX 01 00:00:00
TRACK 08 AUDIO
TITLE "Once Upon a Time in the West"
PERFORMER "Jens Thomas"
ISRC DEA899901700
INDEX 00 04:41:65
FILE "08 - Once Upon a Time in the West.wav" WAVE
INDEX 01 00:00:00
TRACK 09 AUDIO
TITLE "For Maestro Morricone"
PERFORMER "Jens Thomas"
ISRC DEA899901710
INDEX 00 08:46:05
FILE "09 - For Maestro Morricone.wav" WAVE
INDEX 01 00:00:00
TRACK 10 AUDIO
TITLE "Poverty"
PERFORMER "Jens Thomas"
ISRC DEA899901720
INDEX 00 03:38:55
FILE "10 - Poverty.wav" WAVE
INDEX 01 00:00:00
TRACK 11 AUDIO
TITLE "Pioggia"
PERFORMER "Jens Thomas"
ISRC DEA899901730
INDEX 00 06:26:67
FILE "11 - Pioggia.wav" WAVE
INDEX 01 00:00:00
TRACK 12 AUDIO
TITLE "Here's to You"
PERFORMER "Jens Thomas"
ISRC DEA899901740
INDEX 00 02:59:43
FILE "12 - Here's to You.wav" WAVE
INDEX 01 00:00:00
Any questions -> support@pro-jazz.com. По всем вопросам пишите -> support@pro-jazz.com
18:10
203
Нет комментариев. Ваш будет первым!