Вы используете незарегистрированную версию компонента "Вкладки"!

Поиск

(Avant-Garde Jazz) Antony Santor/Ari Diaconis Project - Beyond Human Aid - 2007, FLAC (tracks+.cue), lossless

(Avant-Garde Jazz) Antony Santor/Ari Diaconis Project - Beyond Human Aid - 2007, FLAC (tracks+.cue), lossless
Треклист:
Antony Santor/Ari Diaconis Project - Beyond Human Aid
Жанр: Avant-Garde Jazz
Страна-производитель диска: США
Год издания: 2007
Издатель (лейбл): Ari Diaconis
Аудиокодек: FLAC (*.flac)
Тип рипа: tracks+.cue
Битрейт аудио: lossless
Продолжительность: 49:31
Источник (релизер): lindinalwa (what)
Наличие сканов в содержимом раздачи: да
Треклист:
01. Sorcery and Southern Bells (14:45)
02. RAW (13:50)
03. With All the Earnestness at Our Command/the goal, right?/Footprints (20:56)
Состав:
Anthony Santor - bass
Alex Woslton - trumpet
Andy Allen, Bryan McNamara - alto saxophone
Nick Cassarino - guitar
Ari Diaconis - congas
Geza Carr - drums
Recorded at Charles Eller Studios on December 17, 2007.
 
Лог создания рипа
Exact Audio Copy V0.99 prebeta 5 from 4. May 2009
EAC extraction logfile from 17. March 2011, 22:37
Antony Santor/Ari Diaconis Project / Beyond Human Aid
Used drive : Optiarc DVD RW AD-7243S Adapter: 0 ID: 1
Read mode : Secure
Utilize accurate stream : Yes
Defeat audio cache : Yes
Make use of C2 pointers : No
Read offset correction : 48
Overread into Lead-In and Lead-Out : No
Fill up missing offset samples with silence : Yes
Delete leading and trailing silent blocks : No
Null samples used in CRC calculations : Yes
Used interface : Native Win32 interface for Win NT & 2000
Gap handling : Appended to previous track
Used output format : User Defined Encoder
Selected bitrate : 768 kBit/s
Quality : High
Add ID3 tag : No
Command line compressor : C:\Program Files\Exact Audio Copy\FLAC\FLAC.EXE
Additional command line options : -6 -V -T "ARTIST=%a" -T "TITLE=%t" -T "ALBUM=%g" -T "DATE=%y" -T "TRACKNUMBER=%n" -T "GENRE=%m" -T "COMMENT=%e" %s -o %d
TOC of the extracted CD
Track | Start | Length | Start sector | End sector
---------------------------------------------------------
1 | 0:00.00 | 14:44.54 | 0 | 66353
2 | 14:44.54 | 13:50.27 | 66354 | 128630
3 | 28:35.06 | 20:55.40 | 128631 | 222795
Track 1
Filename C:\Documents and Settings\S\Мои документы\Torrent раздача\01.Antony Santor,Ari Diaconis Project-Sorcery and Southern Bells.wav
Pre-gap length 0:00:02.00
Peak level 100.0 %
Track quality 100.0 %
Test CRC 2C4BD5D7
Copy CRC 2C4BD5D7
Track not present in AccurateRip database
Copy OK
Track 2
Filename C:\Documents and Settings\S\Мои документы\Torrent раздача\02.Antony Santor,Ari Diaconis Project-RAW.wav
Pre-gap length 0:00:00.36
Peak level 97.7 %
Track quality 100.0 %
Test CRC 1A43B141
Copy CRC 1A43B141
Track not present in AccurateRip database
Copy OK
Track 3
Filename C:\Documents and Settings\S\Мои документы\Torrent раздача\03.Antony Santor,Ari Diaconis Project-With All The Earnestness At Our Command,the goal,right ,Footprints.wav
Pre-gap length 0:00:01.25
Peak level 100.0 %
Track quality 99.9 %
Test CRC FC564F87
Copy CRC FC564F87
Track not present in AccurateRip database
Copy OK
None of the tracks are present in the AccurateRip database
No errors occurred
End of status report
 
Содержание индексной карты (.CUE)
REM GENRE Jazz
REM DATE 2007
REM DISCID 280B9A03
REM COMMENT "ExactAudioCopy v0.99pb5"
PERFORMER "Antony Santor/Ari Diaconis Project"
TITLE "Beyond Human Aid"
FILE "01 - Sorcery and Southern Bells.wav" WAVE
TRACK 01 AUDIO
TITLE "Sorcery and Southern Bells"
PERFORMER "Antony Santor/Ari Diaconis Project"
INDEX 01 00:00:00
TRACK 02 AUDIO
TITLE "RAW"
PERFORMER "Antony Santor/Ari Diaconis Project"
INDEX 00 14:44:18
FILE "02 - RAW.wav" WAVE
INDEX 01 00:00:00
TRACK 03 AUDIO
TITLE "03 - With All the Earnestness at Our Command/the goal, right?/Footprints"
PERFORMER "Antony Santor/Ari Diaconis Project"
INDEX 00 13:49:02
FILE "03 - With All the Earnestness at Our Command-the goal, right-Footprints.wav" WAVE
INDEX 01 00:00:00
 
Отчет CUETools
[CUETools log; Date: 15.09.2013 16:34:28; Version: 2.1.4]
[CTDB TOCID: SxRY3ew927zRlQGjeBLTi6vCwb8-] disk not present in database.
[AccurateRip ID: 00065ff5-001582fa-280b9a03] disk not present in database.
Track Peak [ CRC32 ] [W/O NULL] [ LOG ]
-- 100,0 [AB1C1334] [56E332E5]
01 100,0 [2C4BD5D7] [5BACAFA8] CRC32
02 97,7 [1A43B141] [91E83717] CRC32
03 100,0 [FC564F87] [D89614DF] CRC32
 
Review by Dave Major
Soul, instrument, listener—the ideal signal flow for free jazz. Sadly, the sound that can sear across a club all too often falters when forced to travel the shorter distance towards a microphone and on to CD. The inherent difficulty—and some might argue irrelevance—of successfully documenting a primarily improvised form, makes successful releases all the more valuable. Beyond Human Aid presents three lengthy, but tempered and focused tracks from a New York-based group led by bassist Anthony Santor and percussionist Ari Diaconis.
The first of these tracks, "Sorcerey and Southern Bells," is plunged forward by guitarist Nick Cassarino's probing strokes of harmony, and teetering, over growing, embryonic rhythm. Drummer Geza Carr and Ari Diaconis on congas effortlessly coax ideas from each other, juxtaposing portions of phased, aggravated battery with tight, clinical interplay, all the while underpinned and indulged by Santor's bass. The sound is quickly dialed into sharp focus by a harmonious and concerted horn solo led by Alex Woslton on trumpet before swiftly dissolving again into an angular, progressive improvisation from Cassarino. Further in, Santor interjects a contrasting solo interlude that is initially haunted by airy horn lines which grow into a much freer, surrealist soundscape. Here the rhythmic and melodic color is power-washed away by a slew of swells and in depth exploration of percussive timbre, only to have this puesdo-calmness distorted, as if one had pressed fast-forward on the rhythm section.
"RAW" must be meant ironically, standing as probably the strongest offering from a compositional and structural viewpoint. The twin alto saxophones of Andy Allen and Bryan McNamara join together in a bold exposition of a theme somewhat reminiscent of the old Police Squad movies, but always with a nod to the avant-garde, ala Bern Nix and John Zorn. Cassarino's deft and percussive interplay with Carr sets up a wild passage of improvisation—the best coming from this stellar partnership—which drift across the boundaries of both the free and traditional jazz vernacular with wantless abandon.
The last and most lengthy track opens with the group dynamic completely reversed. The rhythmic prowess of Diaconis and Carr is brought to the fore against a constantly decaying, but none the less elegant harmonic carousel. The percussive rock-face produced by the duo affords the soloist limitless nooks and crannies—which they make full use of—before transitioning into an innovative rendition of Wayne Shorter's canonical "Footprints".
Any questions -> support@pro-jazz.com. По всем вопросам пишите -> support@pro-jazz.com
18:12
165
Нет комментариев. Ваш будет первым!