Вы используете незарегистрированную версию компонента "Вкладки"!

Поиск

(Avant-Garde Jazz) Amina Claudine Myers - Salutes Bessie Smith - 1980, FLAC (tracks+.cue), lossless

Треклист:
Amina Claudine Myers - Salutes Bessie Smith
Жанр: Avant-Garde Jazz
Год выпуска диска: 1980
Производитель диска: UK, Leo Records
Аудио кодек: FLAC
Тип рипа: tracks+.cue
Битрейт аудио: lossless
Продолжительность: 43:41
Источник: найдено в сети, релизер Peteris
Трэклист:
1. Wasted Life Blues
2. Dirty No-Gooder's Blues
3. Jailhouse Blues
4. It Makes My Love Come Down
5. The Blues (Straight To You)
6. African Blues
Состав:
Voice, Piano, Organ - Amina Claudine Myers
Bass - Cecil McBee
Drums, Bells - Jimmy Lovelace
 
Отчёт ЕАС
EAC extraction logfile from 27. March 2009, 17:06 for CD
Amina Claudine Myers / Salutes Bessie Smith
Used drive : PLEXTOR DVDR PX-810SA Adapter: 0 ID: 1
Read mode : Secure with NO C2, accurate stream, disable cache
Read offset correction : 48
Overread into Lead-In and Lead-Out : No
Used output format : C:\Program Files\Exact Audio Copy\flac.exe (User Defined Encoder)
320 kBit/s
Additional command line options : -8 -A tukey(0.25) -A gauss(0.1875) -b 4096 -V -T "artist=%a" -T "title=%t" -T "album=%g" -T "date=%y" -T "tracknumber=%n" -T "genre=%m" %s --sector-align
Other options :
Fill up missing offset samples with silence : Yes
Delete leading and trailing silent blocks : No
Installed external ASPI interface
Track 1
Filename d:\Ma musique\@EAC\01 - Wasted Life Blues.wav
Pre-gap length 0:00:02.42
Peak level 89.6 %
Track quality 99.9 %
Test CRC C6AF3C9C
Copy CRC C6AF3C9C
Copy OK
Track 2
Filename d:\Ma musique\@EAC\02 - Dirty No-Gooder's Blues.wav
Pre-gap length 0:00:03.46
Peak level 89.6 %
Track quality 100.0 %
Test CRC 7847F57F
Copy CRC 7847F57F
Copy OK
Track 3
Filename d:\Ma musique\@EAC\03 - Jailhouse Blues.wav
Pre-gap length 0:00:03.73
Peak level 89.6 %
Track quality 100.0 %
Test CRC B2601AEA
Copy CRC B2601AEA
Copy OK
Track 4
Filename d:\Ma musique\@EAC\04 - It Makes My Love Come Down.wav
Pre-gap length 0:00:00.80
Peak level 81.6 %
Track quality 100.0 %
Test CRC 2F7DD897
Copy CRC 2F7DD897
Copy OK
Track 5
Filename d:\Ma musique\@EAC\05 - The Blues (Straight To You).wav
Pre-gap length 0:00:03.73
Peak level 87.4 %
Track quality 100.0 %
Test CRC 768BFFF6
Copy CRC 768BFFF6
Copy OK
Track 6
Filename d:\Ma musique\@EAC\06 - African Blues.wav
Pre-gap length 0:00:04.37
Peak level 89.6 %
Track quality 99.9 %
Test CRC 77BAF7E9
Copy CRC 77BAF7E9
Copy OK
No errors occured
End of status report


Any questions -> support@pro-jazz.com. По всем вопросам пишите -> support@pro-jazz.com
10:47
217
Нет комментариев. Ваш будет первым!