Вы используете незарегистрированную версию компонента "Вкладки"!

Поиск

(avant-garde jazz) Pino Minafra, Ernst Reijseger and Hann Bennink - Noci Strani Frutti - 1991, FLAC (tracks+.cue), lossless

Треклист:
Pino Minafra, Ernst Reijseger and Hann Bennink - Noci Strani Frutti
Жанр: avant-garde jazz
Год выпуска диска: 1991
Производитель диска: Italy
Аудио кодек: FLAC
Тип рипа: tracks+.cue
Битрейт аудио: lossless
Продолжительность: 47:43
Трэклист:
Part 1 - 24'39
Part 2 - 5'35
Part 3 - 14'02
Доп. информация:
 
скрытый текст
Live at Europa Festival Jazz.
Pino Minafra - trumpet, voice, didjerido & other things.
Ernst Reijseger - electric & acoustics cello, voice.
Hann Bennink - drums, percussions, voice & other things.
Recorded live 14th July, 1990 at the Festival of Noci in Pugia, Italy.
"Talent and powerful sound exploding through a provocative and risky challenge full of intrigue not only for the audience but for themselves, their musical world and instruments. A tormented search for lost form, replaced by the changing and haunting flow of music and emotions. ... There are really very few wasted notes throughout this long improvised piece, composed through the memory, reflexions and artistic taste of three great musicians."
 
EAC Log
Exact Audio Copy V0.99 prebeta 4 from 23. January 2008
EAC extraction logfile from 9. May 2009, 13:49
Minafra, Pino with Ernst Reijseger and Han Bennink / noci Stani Frutti
Used drive : Optiarc DVD RW AD-7200A Adapter: 0 ID: 1
Read mode : Secure
Utilize accurate stream : Yes
Defeat audio cache : Yes
Make use of C2 pointers : No
Read offset correction : 48
Overread into Lead-In and Lead-Out : No
Fill up missing offset samples with silence : Yes
Delete leading and trailing silent blocks : No
Null samples used in CRC calculations : Yes
Used interface : Installed external ASPI interface
Gap handling : Appended to previous track
Used output format : User Defined Encoder
Selected bitrate : 640 kBit/s
Quality : High
Add ID3 tag : No
Command line compressor : C:\Program Files\Exact Audio Copy\flac.exe
Additional command line options : -8 -A tukey(0.25) -A gauss(0.1875) -b 4096 -V -T "artist=%a" -T "title=%t" -T "album=%g" -T "date=%y" -T "tracknumber=%n" -T "genre=%m" %s --sector-align
TOC of the extracted CD
Track | Start | Length | Start sector | End sector
---------------------------------------------------------
1 | 0:00.33 | 24:31.10 | 33 | 110367
2 | 24:31.43 | 5:20.22 | 110368 | 134389
3 | 29:51.65 | 13:55.43 | 134390 | 197057
Track 1
Filename H:\WORK\Minafra, Pino with Ernst Reijseger and Han Bennink - Noci Strani Frutti\01 - Minafra, Pino with Ernst Reijseger and Han Bennink - Part 1 .wav
Pre-gap length 0:00:02.44
Peak level 95.7 %
Track quality 100.0 %
Test CRC 4A6F4FA8
Copy CRC 4A6F4FA8
Copy OK
Track 2
Filename H:\WORK\Minafra, Pino with Ernst Reijseger and Han Bennink - Noci Strani Frutti\02 - Minafra, Pino with Ernst Reijseger and Han Bennink - Part 2 .wav
Peak level 100.0 %
Track quality 100.0 %
Test CRC 39C9C24F
Copy CRC 39C9C24F
Copy OK
Track 3
Filename H:\WORK\Minafra, Pino with Ernst Reijseger and Han Bennink - Noci Strani Frutti\03 - Minafra, Pino with Ernst Reijseger and Han Bennink - Part 3 .wav
Peak level 100.0 %
Track quality 100.0 %
Test CRC A92E815C
Copy CRC A92E815C
Copy OK
No errors occurred
End of status report
Any questions -> support@pro-jazz.com. По всем вопросам пишите -> support@pro-jazz.com
10:47
171
Нет комментариев. Ваш будет первым!