Вы используете незарегистрированную версию компонента "Вкладки"!

Поиск

(Fusion/ECM) Dave Holland - Emerald Tears (Bass Solo) - 1977, APE (image+.cue), lossless

(Fusion/ECM) Dave Holland - Emerald Tears (Bass Solo) - 1977, APE (image+.cue), lossless
Треклист:
Dave Holland - Emerald Tears (Bass Solo)
Жанр: Fusion/ECM
Год выпуска диска: 1977
Производитель диска: U.S.A.
Аудио кодек: APE
Тип рипа: image+.cue
Битрейт аудио: lossless
Продолжительность: 45:00
Трэклист:
1. SPHERES (Holland) 5:58
2. EMERALD TEARS (Holland) 6:31
3. COMBINATION (Holland) 5:18
4. B-40 M23-6K RS 4 W (A.Braxton) 5:15
5. UNDER REDWOODS (Holland) 6:38
6. SOLAR (M.Davis) 6:17
7. FLURRIES (Holland) 4:34
8. HOOVELING (Holland) 4:04
Доп. информация:
DAVE HOLLAND- double bass
Recorded August 1977
За альбом большое спасибо уважаемой gorall007.
 
Отчёт EAC
Exact Audio Copy V0.99 prebeta 4 from 23. January 2008
EAC extraction logfile from 8. May 2009, 17:31
Dave Holland / Emerald Tears
Used drive : PLEXTOR DVDR PX-800A Adapter: 1 ID: 1
Read mode : Secure
Utilize accurate stream : Yes
Defeat audio cache : Yes
Make use of C2 pointers : No
Read offset correction : 48
Overread into Lead-In and Lead-Out : No
Fill up missing offset samples with silence : Yes
Delete leading and trailing silent blocks : No
Null samples used in CRC calculations : Yes
Used interface : Installed external ASPI interface
Used output format : Internal WAV Routines
Sample format : 44.100 Hz; 16 Bit; Stereo
TOC of the extracted CD
Track | Start | Length | Start sector | End sector
---------------------------------------------------------
1 | 0:00.32 | 6:02.35 | 32 | 27216
2 | 6:02.67 | 6:34.70 | 27217 | 56836
3 | 12:37.62 | 5:21.13 | 56837 | 80924
4 | 17:59.00 | 5:19.02 | 80925 | 104851
5 | 23:18.02 | 6:38.18 | 104852 | 134719
6 | 29:56.20 | 6:21.40 | 134720 | 163334
7 | 36:17.60 | 4:39.37 | 163335 | 184296
8 | 40:57.22 | 4:04.05 | 184297 | 202601
Range status and errors
Selected range
Filename E:\Dave Holland Images\Emerald Tears\Emerald Tears.wav
Peak level 99.9 %
Range quality 99.9 %
Copy CRC E4F86E69
Copy OK
No errors occurred
AccurateRip summary
Track 1 accurately ripped (confidence 1) [8D471294]
Track 2 accurately ripped (confidence 1) [E5EB8265]
Track 3 accurately ripped (confidence 1) [D342FCA8]
Track 4 accurately ripped (confidence 1) [9AF18AAF]
Track 5 accurately ripped (confidence 1) [0CE1838F]
Track 6 accurately ripped (confidence 1) [62ED4B75]
Track 7 accurately ripped (confidence 1) [F8778CE6]
Track 8 accurately ripped (confidence 1) [AE8CB450]
All tracks accurately ripped
End of status report
Any questions -> support@pro-jazz.com. По всем вопросам пишите -> support@pro-jazz.com
10:48
238
Нет комментариев. Ваш будет первым!