Вы используете незарегистрированную версию компонента "Вкладки"!

Поиск

(Avant-Garde, Free Jazz) Marty Ehrlich - The Welcome - 1984, APE (image+.cue), lossless

(Avant-Garde, Free Jazz) Marty Ehrlich - The Welcome - 1984, APE (image+.cue), lossless
Треклист:
Marty Ehrlich - The Welcome
Жанр: Avant-Garde, Free Jazz
Год выпуска диска: 1984
Производитель диска: Sound Acpects Records, BOX 1150, -7150 Backnang, W. Germany
Аудио кодек: APE
Тип рипа: image+.cue
Битрейт аудио: lossless
Продолжительность: 39'13''
Трэклист:
1/ Hybrid (Ehrlich) 4:37
2/ Lament (in passing) (Ehrlich) 4:58
3/ The Welcome (Ehrlich) 7:19
4/ Generosity (Ehrlich) 7:42
5/ Dark Woods Bright Sparks (Ehrlich) 7:26
6/ Stride (Ehrlich) 6:32
Recorded March 21, 1984 at Westrax Studios, NYC
Marty Ehrlich: alto, flute, clarinet, bass clarinet;
Anthony Cox: bass;
Pheeroan Aklaff: drums.
 
eaclog
Exact Audio Copy V0.99 prebeta 4 from 23. January 2008
Отчёт EAC об извлечении, выполненном 2. марта 2010, 22:30
Marty Ehrlich / The Welcome
Дисковод: TSSTcorpCDDVDW SH-S203D Adapter: 3 ID: 0
Режим чтения : Достоверность
Использование точного потока : Да
Отключение кэша аудио : Да
Использование указателей C2 : Нет
Коррекция смещения при чтении : 6
Способность читать области Lead-in и Lead-out : Нет
Заполнение пропущенных сэмплов тишиной : Да
Удаление блоков с тишиной в начале и конце : Нет
При вычислениях CRC использовались нулевые сэмплы : Да
Интерфейс : Установленный внешний ASPI-интерфейс
Выходной формат : Внутренние WAV-операции
Формат сэмплов : 44.100 Гц; 16 бит; стерео
TOC извлечённого CD
Трек | Старт | Длительность | Начальный сектор | Конечный сектор
---------------------------------------------------------------------
1 | 0:00.00 | 4:44.00 | 0 | 21299
2 | 4:44.00 | 5:06.00 | 21300 | 44249
3 | 9:50.00 | 7:28.00 | 44250 | 77849
4 | 17:18.00 | 7:50.00 | 77850 | 113099
5 | 25:08.00 | 7:32.25 | 113100 | 147024
6 | 32:40.25 | 6:32.65 | 147025 | 176489
Характеристики диапазона извлечения и сообщения об ошибках
Выбранный диапазон
Имя файла E:\FOS\MISIC\Marty Ehrlich\Marty Ehrlich - The Welcome\Marty Ehrlich - The Welcome.wav
Пиковый уровень 100.0 %
Качество диапазона 100.0 %
CRC копии 4D953FBB
Копирование... OK
Ошибок не произошло
Конец отчёта
 
"Cканы" обложки и диска
Any questions -> support@pro-jazz.com. По всем вопросам пишите -> support@pro-jazz.com
19:24
144
Нет комментариев. Ваш будет первым!