Вы используете незарегистрированную версию компонента "Вкладки"!

Поиск

(Free Improvisation) Russ Lossing - All Things Arise - 2006, FLAC (tracks+.cue), lossless

(Free Improvisation) Russ Lossing - All Things Arise - 2006, FLAC (tracks+.cue), lossless
Треклист:
Russ Lossing - All Things Arise
Жанр: Free Improvisation
Год выпуска диска: 2006
Производитель диска: hatOLOGY 634
Аудио кодек: FLAC
Тип рипа: tracks+.cue
Битрейт аудио: lossless
Продолжительность: 61:14
Трэклист:
1-4) Suite: All Things Arise (4 parts) All composed by Russ Lossing
All Things Arise
Interdependence
From Within
Causes
5) Azure 1
by Duke Ellington
6) Pent-Up House
by Sonny Rollins
7) Alabama Song
by Kurt Weill
8) Verse
by Russ Lossing
9) Azure 2
by Duke Ellington
Russ Lossing - piano
Digital recording on June 13, 2005 at Charlestown Road Studio, Hampton N.J.
Доп. информация:
 
скрытый текст
For Lossing, improvisation is clearly a special act, a study in transparence and transformation, a creative exchange among the elements. One hears fresh relations of time and space. His acute sense of time connects inevitably to its absence. Space is heard in his sense of density, the room he can make around a note even at high speed, the contrasts between counterpoint and elegant strings of simple notes. Space is also vertical in Lossing's music - in the ways that wide and tight intervals interact in his chords. This solo CD seems almost two-sided, like the LP of tradition. There is a side of free improvisation followed by treatments of largely familiar themes. We might think of it as a voyage inward and a voyage outward; a journey forward followed by one into the past.
- Stuart Broomer, liner notes
 
CUE
REM GENRE jazz
REM DATE 2006
REM DISCID 7A0E5D0A
REM COMMENT "ExactAudioCopy v0.99pb5"
PERFORMER "lossing, russ"
TITLE "all things arise"
FILE "01 - suite- all things arise (4 parts)- all things arise.wav" WAVE
TRACK 01 AUDIO
TITLE "suite: all things arise (4 parts): all things arise"
PERFORMER "lossing, russ"
ISRC CE0[10600753
INDEX 01 00:00:00
FILE "02 - suite- all things arise (4 parts)- interdependence.wav" WAVE
TRACK 02 AUDIO
TITLE "suite: all things arise (4 parts): interdependence"
PERFORMER "lossing, russ"
ISRC CE0[10600754
INDEX 01 00:00:00
FILE "03 - suite- all things arise (4 parts)- from within.wav" WAVE
TRACK 03 AUDIO
TITLE "suite: all things arise (4 parts): from within"
PERFORMER "lossing, russ"
ISRC CE0[10600755
INDEX 01 00:00:00
FILE "04 - suite- all things arise (4 parts)- causes.wav" WAVE
TRACK 04 AUDIO
TITLE "suite: all things arise (4 parts): causes"
PERFORMER "lossing, russ"
ISRC CE0[10600756
INDEX 01 00:00:00
FILE "05 - azure 1.wav" WAVE
TRACK 05 AUDIO
TITLE "azure 1"
PERFORMER "lossing, russ"
ISRC CE0[10600757
INDEX 01 00:00:00
FILE "06 - pent-up house.wav" WAVE
TRACK 06 AUDIO
TITLE "pent-up house"
PERFORMER "lossing, russ"
ISRC CE0[10600758
INDEX 01 00:00:00
FILE "07 - kathelin grey.wav" WAVE
TRACK 07 AUDIO
TITLE "kathelin grey"
PERFORMER "lossing, russ"
ISRC CE0[10600759
INDEX 01 00:00:00
FILE "08 - alabama song.wav" WAVE
TRACK 08 AUDIO
TITLE "alabama song"
PERFORMER "lossing, russ"
ISRC CE0[10600760
INDEX 01 00:00:00
FILE "09 - verse.wav" WAVE
TRACK 09 AUDIO
TITLE "verse"
PERFORMER "lossing, russ"
ISRC CE0[10600761
INDEX 01 00:00:00
FILE "10 - azure 2.wav" WAVE
TRACK 10 AUDIO
TITLE "azure 2"
PERFORMER "lossing, russ"
ISRC CE0[10600762
INDEX 01 00:00:00
 
EAC extraction logfile
Exact Audio Copy V0.99 prebeta 5 from 4. May 2009
EAC extraction logfile from 25. February 2010, 23:39
lossing, russ / all things arise
Used drive : TSSTcorpCDDVDW SH-S203B Adapter: 2 ID: 0
Read mode : Secure
Utilize accurate stream : Yes
Defeat audio cache : No
Make use of C2 pointers : Yes
Read offset correction : 6
Overread into Lead-In and Lead-Out : No
Fill up missing offset samples with silence : Yes
Delete leading and trailing silent blocks : No
Null samples used in CRC calculations : Yes
Used interface : Native Win32 interface for Win NT & 2000
Gap handling : Appended to previous track
Used output format : User Defined Encoder
Selected bitrate : 128 kBit/s
Quality : High
Add ID3 tag : No
Command line compressor : D:\Audio Codecs\TAK\wapet.exe
Additional command line options : %d -t "Artist=%a" -t "Title=%t" -t "Album=%g" -t "Year=%y" -t "Track=%n" -t "Genre=%m" "C:\Program Files\TAK\takc.exe" -e -p4m %s %d
TOC of the extracted CD
Track | Start | Length | Start sector | End sector
---------------------------------------------------------
1 | 0:00.00 | 9:52.07 | 0 | 44406
2 | 9:52.07 | 7:10.22 | 44407 | 76678
3 | 17:02.29 | 4:00.33 | 76679 | 94711
4 | 21:02.62 | 5:58.12 | 94712 | 121573
5 | 27:00.74 | 7:12.22 | 121574 | 153995
6 | 34:13.21 | 3:08.45 | 153996 | 168140
7 | 37:21.66 | 4:55.12 | 168141 | 190277
8 | 42:17.03 | 6:14.64 | 190278 | 218391
9 | 48:31.67 | 7:28.37 | 218392 | 252028
10 | 56:00.29 | 5:17.33 | 252029 | 275836
Track 1
Filename lossing, russ\(2006) all things arise\01 - suite- all things arise (4 parts)- all things arise.wav
Pre-gap length 0:00:02.00
Peak level 98.9 %
Track quality 100.0 %
Test CRC 2D2DBFF4
Copy CRC 2D2DBFF4
Track not present in AccurateRip database
Copy OK
Track 2
Filename lossing, russ\(2006) all things arise\02 - suite- all things arise (4 parts)- interdependence.wav
Peak level 97.5 %
Track quality 99.9 %
Test CRC 7DA2CA0B
Copy CRC 7DA2CA0B
Track not present in AccurateRip database
Copy OK
Track 3
Filename lossing, russ\(2006) all things arise\03 - suite- all things arise (4 parts)- from within.wav
Peak level 78.2 %
Track quality 100.0 %
Test CRC 2F897EB6
Copy CRC 2F897EB6
Track not present in AccurateRip database
Copy OK
Track 4
Filename lossing, russ\(2006) all things arise\04 - suite- all things arise (4 parts)- causes.wav
Peak level 98.9 %
Track quality 100.0 %
Test CRC 4F5A323E
Copy CRC 4F5A323E
Track not present in AccurateRip database
Copy OK
Track 5
Filename lossing, russ\(2006) all things arise\05 - azure 1.wav
Peak level 77.8 %
Track quality 100.0 %
Test CRC 254AF4D8
Copy CRC 254AF4D8
Track not present in AccurateRip database
Copy OK
Track 6
Filename lossing, russ\(2006) all things arise\06 - pent-up house.wav
Peak level 95.1 %
Track quality 100.0 %
Test CRC 7D956843
Copy CRC 7D956843
Track not present in AccurateRip database
Copy OK
Track 7
Filename lossing, russ\(2006) all things arise\07 - kathelin grey.wav
Peak level 98.9 %
Track quality 100.0 %
Test CRC 32BF6EAE
Copy CRC 32BF6EAE
Track not present in AccurateRip database
Copy OK
Track 8
Filename lossing, russ\(2006) all things arise\08 - alabama song.wav
Peak level 86.3 %
Track quality 100.0 %
Test CRC 110698DA
Copy CRC 110698DA
Track not present in AccurateRip database
Copy OK
Track 9
Filename lossing, russ\(2006) all things arise\09 - verse.wav
Peak level 98.9 %
Track quality 100.0 %
Test CRC 65A710B5
Copy CRC 65A710B5
Track not present in AccurateRip database
Copy OK
Track 10
Filename lossing, russ\(2006) all things arise\10 - azure 2.wav
Peak level 84.0 %
Track quality 100.0 %
Test CRC 25771468
Copy CRC 25771468
Track not present in AccurateRip database
Copy OK
None of the tracks are present in the AccurateRip database
No errors occurred
End of status report
По всем вопросам пишите личное сообщение пользователю M0p94ok.
19:24
138
Нет комментариев. Ваш будет первым!