Вы используете незарегистрированную версию компонента "Вкладки"!

Поиск

(Free Jazz) Assif Tsahar, Ori Kaplan, Daniel Sarid, Oded Goldshmidt, Bob Mayer - Cries Of Disillusion - 2001, FLAC (tracks+.cue), lossless

Треклист:
Assif Tsahar, Ori Kaplan, Daniel Sarid, Oded Goldshmidt, Bob Mayer - Cries Of Disillusion
Жанр: Free Jazz
Год выпуска диска: 2001
Производитель диска: Earsay's Jazz (ES019)
Источник: вот.сиди (scanner95)
Аудио кодек: FLAC
Тип рипа: tracks+.cue
Битрейт аудио: lossless
Продолжительность: 50:48
Трэклист:
1. Double Standard 6:47 Tsahar
2. One Cymbole 7:12 Kaplan
3. Fourth 8:52 Tsahar
4. The Vanishing Blues 6:03 Tsahar
5. Cries of Disillusion 8:21 Sarid
6. Through the Night 5:32 Kaplan
7. Brisk Living 7:54 Kaplan
Assif Tsahar - tenor saxophone and bass clarinet
Ori Kaplan - alto saxophone
Daniel Sarid - piano
Oded Goldshmidt - bass
Bob Mayer - drums
 
Отчёт EAC
EAC extraction logfile from 2. May 2005, 21:59 for CD
Cries of Disillusion / Cries of Disillusion
Used drive : MATSHITAUJDA745 DVD/CDRW Adapter: 2 ID: 0
Read mode : Secure with NO C2, accurate stream, disable cache
Read offset correction : 102
Overread into Lead-In and Lead-Out : No
Used output format : Internal WAV Routines
44.100 Hz; 16 Bit; Stereo
Other options :
Fill up missing offset samples with silence : Yes
Delete leading and trailing silent blocks : No
Installed external ASPI interface
Track 1
Filename C:\Documents and Settings\ymilner.DAN\My Documents\Audio\Assif Tsahar - Cries of Disillusion (2001)[FLAC]\01 - Double Standard .wav
Pre-gap length 0:00:02.00
Peak level 100.0 %
Track quality 100.0 %
Test CRC 3DD27F68
Copy CRC 3DD27F68
Copy OK
Track 2
Filename C:\Documents and Settings\ymilner.DAN\My Documents\Audio\Assif Tsahar - Cries of Disillusion (2001)[FLAC]\02 - One Cymbole .wav
Peak level 100.0 %
Track quality 100.0 %
Test CRC 16DE2511
Copy CRC 16DE2511
Copy OK
Track 3
Filename C:\Documents and Settings\ymilner.DAN\My Documents\Audio\Assif Tsahar - Cries of Disillusion (2001)[FLAC]\03 - Forth .wav
Pre-gap length 0:00:00.01
Peak level 100.0 %
Track quality 99.9 %
Test CRC 68CF54B2
Copy CRC 68CF54B2
Copy OK
Track 4
Filename C:\Documents and Settings\ymilner.DAN\My Documents\Audio\Assif Tsahar - Cries of Disillusion (2001)[FLAC]\04 - The Vanishing Blues .wav
Peak level 100.0 %
Track quality 100.0 %
Test CRC 406DD423
Copy CRC 406DD423
Copy OK
Track 5
Filename C:\Documents and Settings\ymilner.DAN\My Documents\Audio\Assif Tsahar - Cries of Disillusion (2001)[FLAC]\05 - Cries of Disillusion .wav
Pre-gap length 0:00:00.01
Peak level 100.0 %
Track quality 100.0 %
Test CRC 64402589
Copy CRC 64402589
Copy OK
Track 6
Filename C:\Documents and Settings\ymilner.DAN\My Documents\Audio\Assif Tsahar - Cries of Disillusion (2001)[FLAC]\06 - Through the Night .wav
Pre-gap length 0:00:00.04
Peak level 100.0 %
Track quality 100.0 %
Test CRC F9A389F3
Copy CRC F9A389F3
Copy OK
Track 7
Filename C:\Documents and Settings\ymilner.DAN\My Documents\Audio\Assif Tsahar - Cries of Disillusion (2001)[FLAC]\07 - Brisk Living .wav
Peak level 100.0 %
Track quality 100.0 %
Test CRC AA2E6FD2
Copy CRC AA2E6FD2
Copy OK
No errors occured
End of status report
 
Отчёт Audiocheckera
AUDIOCHECKER v1.2 - by Dester - opdester@freemail.hu
~~~~~~~~~~~~~~~~~
1 -===- H:\Песеньки\lossless\assif tsahar\cries of disillusion 2001\01 - Double Standard .flac
Extracted successfully
Conclusion: This track looks like CDDA with probability 100%
2 -===- H:\Песеньки\lossless\assif tsahar\cries of disillusion 2001\02 - One Cymbole .flac
Extracted successfully
Conclusion: This track looks like CDDA with probability 100%
3 -===- H:\Песеньки\lossless\assif tsahar\cries of disillusion 2001\03 - Forth .flac
Extracted successfully
Conclusion: This track looks like CDDA with probability 100%
4 -===- H:\Песеньки\lossless\assif tsahar\cries of disillusion 2001\04 - The Vanishing Blues .flac
Extracted successfully
Conclusion: This track looks like CDDA with probability 100%
5 -===- H:\Песеньки\lossless\assif tsahar\cries of disillusion 2001\05 - Cries of Disillusion .flac
Extracted successfully
Conclusion: This track looks like CDDA with probability 100%
6 -===- H:\Песеньки\lossless\assif tsahar\cries of disillusion 2001\06 - Through the Night .flac
Extracted successfully
Conclusion: This track looks like CDDA with probability 100%
7 -===- H:\Песеньки\lossless\assif tsahar\cries of disillusion 2001\07 - Brisk Living .flac
Extracted successfully
Conclusion: This track looks like CDDA with probability 100%
 
cue
PERFORMER "Cries of Disillusion"
TITLE "Cries of Disillusion"
FILE "01 - Double Standard .wav" WAVE
TRACK 01 AUDIO
TITLE "Double Standard"
PERFORMER "Cries of Disillusion"
INDEX 01 00:00:00
FILE "02 - One Cymbole .wav" WAVE
TRACK 02 AUDIO
TITLE "One Cymbole"
PERFORMER "Cries of Disillusion"
INDEX 01 00:00:00
TRACK 03 AUDIO
TITLE "Forth"
PERFORMER "Cries of Disillusion"
INDEX 00 07:11:53
FILE "03 - Forth .wav" WAVE
INDEX 01 00:00:00
FILE "04 - The Vanishing Blues .wav" WAVE
TRACK 04 AUDIO
TITLE "The Vanishing Blues"
PERFORMER "Cries of Disillusion"
INDEX 01 00:00:00
TRACK 05 AUDIO
TITLE "Cries of Disillusion"
PERFORMER "Cries of Disillusion"
INDEX 00 05:59:28
FILE "05 - Cries of Disillusion .wav" WAVE
INDEX 01 00:00:00
TRACK 06 AUDIO
TITLE "Through the Night"
PERFORMER "Cries of Disillusion"
INDEX 00 08:18:68
FILE "06 - Through the Night .wav" WAVE
INDEX 01 00:00:00
FILE "07 - Brisk Living .wav" WAVE
TRACK 07 AUDIO
TITLE "Brisk Living"
PERFORMER "Cries of Disillusion"
INDEX 01 00:00:00
Any questions -> support@pro-jazz.com. По всем вопросам пишите -> support@pro-jazz.com
19:23
130
Нет комментариев. Ваш будет первым!