Вы используете незарегистрированную версию компонента "Вкладки"!

Поиск

(Avant-Garde, Free Jazz) David Murray (with McCoy Tyner, Fred Hopkins, Elvin Jones) - Special Quartet {DIW Columbia CK 52955, USA} - 1991, FLAC (image+.cue) lossless

(Avant-Garde, Free Jazz) David Murray (with McCoy Tyner, Fred Hopkins, Elvin Jones) - Special Quartet {DIW Columbia CK 52955, USA} - 1991, FLAC (image+.cue) lossless
Треклист:
David Murray (with McCoy Tyner, Fred Hopkins, Elvin Jones) - Special Quartet
Жанр: Avant-Garde, Free Jazz
Страна-производитель диска: USA
Год издания диска: 1991
Издатель (лейбл): Sony / DIW Columbia
Номер по каталогу: CK 52955 (DIDP 077885)
Аудио кодек: FLAC (*.flac)
Тип рипа: image+.cue
Битрейт аудио: lossless
Продолжительность: 00:50:56
Источник (релизер): собственный рип с оригинального фирменного CD (Darkman)
Наличие сканов в содержимом раздачи: да (полный комплект, 300 dpi + полный альтернативный комплект сканов, by PCWhizzkid, 600 dpi from Austrian CD issue)
Треклист:
1. Cousin Mary
2. Hope/Scope
3. La Tina Lee
4. Dexter's Dues
5. In A Sentimental Mood
6. 3D Family
Personnel:
David Murray - Tenor Saxophone
McCoy Tyner - Piano
Elvin Jones - Drums
Fred Hopkins - Bass
Recorded by Harvey Goldberg at Soundtrack, NY on March 26, 1990
Assistant Engineer: Chris Trevett
Mixed by Jim Anderson and Kazunori Sugiyama at Effanel Towers, NY on June 6 and 7, 1990
Assistant Engineer: John Harris
Cover Photo: Hashimoto/NYC
Cover Design: DIW Design Room
 
Лог создания рипа (EAC Log)
Exact Audio Copy V0.99 prebeta 5 from 4. May 2009
EAC extraction logfile from 16. September 2011, 2:28
David Murray / Special Quartet
Used drive : HL-DT-STDVD-RAM GSA-H54N Adapter: 0 ID: 0
Read mode : Secure
Utilize accurate stream : Yes
Defeat audio cache : Yes
Make use of C2 pointers : No
Read offset correction : 102
Overread into Lead-In and Lead-Out : No
Fill up missing offset samples with silence : Yes
Delete leading and trailing silent blocks : No
Null samples used in CRC calculations : Yes
Used interface : Native Win32 interface for Win NT & 2000
Used output format : User Defined Encoder
Selected bitrate : 320 kBit/s
Quality : High
Add ID3 tag : No
Command line compressor : C:\Program Files\Exact Audio Copy\Flac\flac.exe
Additional command line options : -8 -V %s
TOC of the extracted CD
Track | Start | Length | Start sector | End sector
---------------------------------------------------------
1 | 0:00.00 | 7:33.32 | 0 | 34006
2 | 7:33.32 | 10:50.43 | 34007 | 82799
3 | 18:24.00 | 6:04.22 | 82800 | 110121
4 | 24:28.22 | 6:36.33 | 110122 | 139854
5 | 31:04.55 | 10:23.65 | 139855 | 186644
6 | 41:28.45 | 9:27.52 | 186645 | 229221
Range status and errors
Selected range
Filename C:\EAC\David Murray - Special Quartet.wav
Peak level 99.2 %
Range quality 99.9 %
Test CRC 504A2290
Copy CRC 504A2290
Copy OK
No errors occurred
AccurateRip summary
Track 1 accurately ripped (confidence 5) [17A347F4]
Track 2 accurately ripped (confidence 6) [6057F0E1]
Track 3 accurately ripped (confidence 6) [1702E1A6]
Track 4 accurately ripped (confidence 6) [6C4CC536]
Track 5 accurately ripped (confidence 6) [EE4592D0]
Track 6 accurately ripped (confidence 4) [DB01028A]
All tracks accurately ripped
End of status report
 
Содержание индексной карты (.CUE)
REM GENRE Jazz
REM DATE 1991
REM DISCID 480BF006
REM COMMENT "ExactAudioCopy v0.99pb5"
PERFORMER "David Murray"
TITLE "Special Quartet"
FILE "David Murray - Special Quartet.flac" WAVE
TRACK 01 AUDIO
TITLE "Cousin Mary"
PERFORMER "David Murray"
INDEX 01 00:00:00
TRACK 02 AUDIO
TITLE "Hope/Scope"
PERFORMER "David Murray"
INDEX 00 07:29:60
INDEX 01 07:33:32
TRACK 03 AUDIO
TITLE "La Tina Lee"
PERFORMER "David Murray"
INDEX 00 18:20:52
INDEX 01 18:24:00
TRACK 04 AUDIO
TITLE "Dexter's Dues"
PERFORMER "David Murray"
INDEX 00 24:24:57
INDEX 01 24:28:22
TRACK 05 AUDIO
TITLE "In A Sentimental Mood"
PERFORMER "David Murray"
INDEX 00 31:01:30
INDEX 01 31:04:55
TRACK 06 AUDIO
TITLE "3D Family"
PERFORMER "David Murray"
INDEX 00 41:25:12
INDEX 01 41:28:45
 
Об альбоме (сборнике)
When one reads the personnel on this CD, the potential seems enormous: tenor saxophonist David Murray, pianist McCoy Tyner, bassist Fred Hopkins, and drummer Elvin Jones. Murray was a good choice for the tenor slot because, although influenced by John Coltrane's adventurous spirit, he has never sounded like Coltrane, coming closer to the Ben Webster/Paul Gonsalves tradition but with a style of his own. In addition to Trane's "Cousin Mary" and "In a Sentimental Mood" (which Coltrane had recorded with Duke Ellington, and Murray takes as a duet with Tyner), the music includes three of the tenor's originals (including "3-D Family") and a Butch Morris song. The fresh material really pushes Tyner, who mostly sticks to standards with his own trio, while Jones sounds as passionate as usual. A successful outing full of mutual inspiration, this CD is easily recommended. ~ Scott Yanow, All Music Guide
По всем вопросам пишите личное сообщение пользователю M0p94ok.
16:54
286
Нет комментариев. Ваш будет первым!