Вы используете незарегистрированную версию компонента "Вкладки"!

Поиск

(Free Improvisation) Shelley Burgon & Trevor Dunn - Baltimore - 2006, FLAC (tracks+.cue), lossless

(Free Improvisation) Shelley Burgon & Trevor Dunn - Baltimore - 2006, FLAC (tracks+.cue), lossless
Треклист:
Shelley Burgon & Trevor Dunn / Baltimore
Жанр: Free Improvisation
Страна-производитель диска: США
Год издания диска: 2006
Издатель (лейбл): Skirl Records
Номер по каталогу: Skirl 005
Страна: США
Аудиокодек: FLAC (*.flac)
Тип рипа: tracks+.cue
Битрейт аудио: lossless
Продолжительность: 41:13
Источник (релизер): вот.сиди (cthonist)
Наличие сканов в содержимом раздачи: нет
Треклист:
1 I. 6:44
2 II. 6:41
3 III. 11:34
4 IV. 4:23
5 V. 7:01
6 VI. 4:51
recorded in Baltimore, March 2005
 
Лог создания рипа
Exact Audio Copy V1.0 beta 1 from 15. November 2010
EAC extraction logfile from 18. February 2011, 21:15
Shelley Burgon & Trevor Dunn / Baltimore
Used drive : Optiarc BD ROM BC-5500H Adapter: 0 ID: 1
Read mode : Secure
Utilize accurate stream : Yes
Defeat audio cache : Yes
Make use of C2 pointers : No
Read offset correction : 48
Overread into Lead-In and Lead-Out : No
Fill up missing offset samples with silence : Yes
Delete leading and trailing silent blocks : No
Null samples used in CRC calculations : Yes
Used interface : Native Win32 interface for Win NT & 2000
Gap handling : Appended to previous track
Used output format : User Defined Encoder
Selected bitrate : 128 kBit/s
Quality : High
Add ID3 tag : No
Command line compressor : C:\Program Files (x86)\Exact Audio Copy\Flac\flac.exe
Additional command line options : -V -8 -T "artist=%a" -T "title=%t" -T "album=%g" -T "date=%y" -T "tracknumber=%n" -T "genre=%m" %s
TOC of the extracted CD
Track | Start | Length | Start sector | End sector
---------------------------------------------------------
1 | 0:00.00 | 6:43.47 | 0 | 30271
2 | 6:43.47 | 6:41.33 | 30272 | 60379
3 | 13:25.05 | 11:33.52 | 60380 | 112406
4 | 24:58.57 | 4:23.18 | 112407 | 132149
5 | 29:22.00 | 7:00.40 | 132150 | 163689
6 | 36:22.40 | 4:50.39 | 163690 | 185478
Track 1
Filename C:\Users\user\Music\Shelley Burgon & Trevor Dunn - Baltimore [2006]\01 I.wav
Pre-gap length 0:00:02.00
Peak level 91.7 %
Extraction speed 1.1 X
Track quality 100.0 %
Test CRC 5A5D3BF5
Copy CRC 5A5D3BF5
Track not present in AccurateRip database
Copy OK
Track 2
Filename C:\Users\user\Music\Shelley Burgon & Trevor Dunn - Baltimore [2006]\02 II.wav
Peak level 100.0 %
Extraction speed 1.0 X
Track quality 99.9 %
Test CRC 32F7886C
Copy CRC 32F7886C
Track not present in AccurateRip database
Copy OK
Track 3
Filename C:\Users\user\Music\Shelley Burgon & Trevor Dunn - Baltimore [2006]\03 III.wav
Peak level 100.0 %
Extraction speed 1.1 X
Track quality 99.9 %
Test CRC D1810F00
Copy CRC D1810F00
Track not present in AccurateRip database
Copy OK
Track 4
Filename C:\Users\user\Music\Shelley Burgon & Trevor Dunn - Baltimore [2006]\04 IV.wav
Peak level 86.3 %
Extraction speed 1.1 X
Track quality 100.0 %
Test CRC B9C07AFA
Copy CRC B9C07AFA
Track not present in AccurateRip database
Copy OK
Track 5
Filename C:\Users\user\Music\Shelley Burgon & Trevor Dunn - Baltimore [2006]\05 V.wav
Peak level 100.0 %
Extraction speed 1.1 X
Track quality 100.0 %
Test CRC 3EB5F96F
Copy CRC 3EB5F96F
Track not present in AccurateRip database
Copy OK
Track 6
Filename C:\Users\user\Music\Shelley Burgon & Trevor Dunn - Baltimore [2006]\06 VI.wav
Peak level 100.0 %
Extraction speed 1.1 X
Track quality 100.0 %
Test CRC AA7EE04D
Copy CRC AA7EE04D
Track not present in AccurateRip database
Copy OK
None of the tracks are present in the AccurateRip database
No errors occurred
End of status report
==== Log checksum 47AA3423B35521FBA0AF914F15A02486993229BA1C26A4C48BECCAC2B78224CB ====
 
Содержание индексной карты (.CUE)
REM GENRE "Avant Garde"
REM DATE 2006
REM DISCID 4109A906
REM COMMENT "ExactAudioCopy v1.0b1"
FILE "01 I.wav" WAVE
TRACK 01 AUDIO
INDEX 01 00:00:00
FILE "02 II.wav" WAVE
TRACK 02 AUDIO
INDEX 01 00:00:00
FILE "03 III.wav" WAVE
TRACK 03 AUDIO
INDEX 01 00:00:00
FILE "04 IV.wav" WAVE
TRACK 04 AUDIO
INDEX 01 00:00:00
FILE "05 V.wav" WAVE
TRACK 05 AUDIO
INDEX 01 00:00:00
FILE "06 VI.wav" WAVE
TRACK 06 AUDIO
INDEX 01 00:00:00
 
Лог проверки качества
AUDIOCHECKER v2.0 beta (build 457) - by Dester - opdester@freemail.hu
~~~~~~~~~~~~~~~~~~~~~~~~~~~~~~~~~~
-=== DO NOT EDIT THIS FILE! ===-
Path: ...\Shelley Burgon & Trevor Dunn - Baltimore [2006] FLAC
1 -=- 01 I.flac -=- CDDA (100%)
2 -=- 02 II.flac -=- CDDA (100%)
3 -=- 03 III.flac -=- CDDA (100%)
4 -=- 04 IV.flac -=- CDDA (100%)
5 -=- 05 V.flac -=- CDDA (100%)
6 -=- 06 VI.flac -=- CDDA (100%)
Summary 100,00% CDDA
5465220
 
Состав
Shelley Burgon pedal harp
Trevor Dunn contrabass
По всем вопросам пишите личное сообщение пользователю M0p94ok.
16:53
214
Нет комментариев. Ваш будет первым!