Поиск

(Contemporary Jazz, Saxophone, Avant-Garde) Bluiett Baritone Nation - Libation for the Baritone Saxophone Nation (Hamiet Bluiett, James Carter etc) {Justin Time JTR 8470-2, Canada} - 1998, FLAC (image+.cue) lossless

Треклист:
Bluiett Baritone Nation - Libation for the Baritone Saxophone Nation
Жанр: Contemporary Jazz, Saxophone, Avant-Garde
Страна-производитель диска: Canada
Год издания диска: 1998
Издатель (лейбл): Justin Time
Номер по каталогу: JTR 8470-2
Аудио кодек: FLAC (*.flac)
Тип рипа: image+.cue
Битрейт аудио: lossless
Продолжительность: 01:13:02
Источник (релизер): собственный рип с оригинального фирменного CD (Darkman)
Наличие сканов в содержимом раздачи: да (полный комлект сканов, 300 dpi)
Треклист:
1. Libation for the Baritone Saxophone Nation (8:36)
2. Discussion Among Friends (8:37)
3. MPR-1 (2:35)
4. Revival (9:57)
5. Settegast Strut (10:06)
6. Underwater Birth (5:35)
7. J.B. Groove (18:58)
8. KMA/QB (8:35)
Personnel:
Hamiet Bluiett - Baritone saxophone / Saxophone baryton
Alex Harding - Baritone saxophone / Saxophone baryton
James Carter - Baritone saxophone / Saxophone baryton
Patience Higgins - Baritone saxophone / Saxophone baryton
Ronnie Burrage - Drums / Batterie
Recorded by La Chaîne culturelle de Radio-Canada for "Silence on jazz" at the 1997 Montreal International Jazz Festival.
 
Лог создания рипа (EAC Log)
Exact Audio Copy V0.99 prebeta 5 from 4. May 2009
EAC extraction logfile from 16. September 2011, 3:37
Bluiett Baritone Nation / Libation for the Baritone Saxophone Nation
Used drive : HL-DT-STDVD-RAM GSA-H54N Adapter: 0 ID: 0
Read mode : Secure
Utilize accurate stream : Yes
Defeat audio cache : Yes
Make use of C2 pointers : No
Read offset correction : 102
Overread into Lead-In and Lead-Out : No
Fill up missing offset samples with silence : Yes
Delete leading and trailing silent blocks : No
Null samples used in CRC calculations : Yes
Used interface : Native Win32 interface for Win NT & 2000
Used output format : User Defined Encoder
Selected bitrate : 320 kBit/s
Quality : High
Add ID3 tag : No
Command line compressor : C:\Program Files\Exact Audio Copy\Flac\flac.exe
Additional command line options : -8 -V %s
TOC of the extracted CD
Track | Start | Length | Start sector | End sector
---------------------------------------------------------
1 | 0:00.00 | 8:36.27 | 0 | 38726
2 | 8:36.27 | 8:37.23 | 38727 | 77524
3 | 17:13.50 | 2:35.22 | 77525 | 89171
4 | 19:48.72 | 9:57.55 | 89172 | 134001
5 | 29:46.52 | 10:06.45 | 134002 | 179496
6 | 39:53.22 | 5:35.13 | 179497 | 204634
7 | 45:28.35 | 18:58.70 | 204635 | 290054
8 | 64:27.30 | 8:35.12 | 290055 | 328691
Range status and errors
Selected range
Filename C:\EAC\Bluiett Baritone Nation - Libation for the Baritone Saxophone Nation.wav
Peak level 100.0 %
Range quality 99.9 %
Test CRC C627630F
Copy CRC C627630F
Copy OK
No errors occurred
AccurateRip summary
Track 1 accurately ripped (confidence 1) [A6ADB90D]
Track 2 accurately ripped (confidence 1) [A236153B]
Track 3 accurately ripped (confidence 1) [C07DD17E]
Track 4 accurately ripped (confidence 1) [E4D066B8]
Track 5 accurately ripped (confidence 1) [FEED6F5C]
Track 6 accurately ripped (confidence 1) [85B92261]
Track 7 accurately ripped (confidence 1) [9D000DB1]
Track 8 accurately ripped (confidence 1) [E54F48CA]
All tracks accurately ripped
End of status report
 
Содержание индексной карты (.CUE)
REM GENRE Jazz
REM DATE 1998
REM DISCID 75111E08
REM COMMENT "ExactAudioCopy v0.99pb5"
PERFORMER "Bluiett Baritone Nation"
TITLE "Libation for the Baritone Saxophone Nation"
FILE "Bluiett Baritone Nation - Libation for the Baritone Saxophone Nation.flac" WAVE
TRACK 01 AUDIO
TITLE "Libation for the Baritone Saxophone Nation"
PERFORMER "Bluiett Baritone Nation"
INDEX 01 00:00:00
TRACK 02 AUDIO
TITLE "Discussion Among Friends"
PERFORMER "Bluiett Baritone Nation"
INDEX 01 08:36:27
TRACK 03 AUDIO
TITLE "MPR-1"
PERFORMER "Bluiett Baritone Nation"
INDEX 01 17:13:50
TRACK 04 AUDIO
TITLE "Revival"
PERFORMER "Bluiett Baritone Nation"
INDEX 01 19:48:72
TRACK 05 AUDIO
TITLE "Settegast Strut"
PERFORMER "Bluiett Baritone Nation"
INDEX 01 29:46:52
TRACK 06 AUDIO
TITLE "Underwater Birth"
PERFORMER "Bluiett Baritone Nation"
INDEX 01 39:53:22
TRACK 07 AUDIO
TITLE "J.B. Groove"
PERFORMER "Bluiett Baritone Nation"
INDEX 01 45:28:35
TRACK 08 AUDIO
TITLE "KMA/QB"
PERFORMER "Bluiett Baritone Nation"
INDEX 01 64:27:30
 
Customer Review @ Amazon
5.0 out of 5 stars - Magnificent, joyful noise made by four baritone saxophones, February 18, 2005
By: David Badagnani (Kent, Ohio, USA)
This is *the* CD for people who like a LOT of baritone saxophone! 4 of them, to be exact. The playing, done by four of the instrument's top players (with drum set accompaniment), is jazzy, but also very funky, with each sax taking a different role: melody, inner parts, and bass line. Unlike a typical sax quartet which is made up of four different sizes of saxophone, this group does it with all baris, which makes it even more amazing that the lead players can hit such high notes. The playing is inspired and this CD should appeal to any adventurous listener of jazz and funk. One note: the music does get really raucous at times, so don't put this on for an evening of easy listening!
 
Allmusic
Review
by Tim Sheridan
This unusual four-sax combo honks to high heaven on this live disc. But only horn fans of the deepest hue need apply. The squonk and bratt of horn syncopations like "Discussion Among Friends" are a bit grating after a time.
 
Back
 
CD
По всем вопросам пишите личное сообщение пользователю M0p94ok.
15:55
471
Нет комментариев. Ваш будет первым!