Поиск

(Avant-Garde, Free Improvisation, RogueArt) [CD] Taylor Ho Bynum, John Hebert, Gerald Cleaver - Book of Three - 2010, FLAC (tracks+.cue), lossless

(Avant-Garde, Free Improvisation, RogueArt) [CD] Taylor Ho Bynum, John Hebert, Gerald Cleaver - Book of Three - 2010, FLAC (tracks+.cue), lossless
Taylor Ho Bynum, John Hébert, Gerald Cleaver / Book of Three
Жанр: Avant-Garde, Free Improvisation, RogueArt
Носитель: CD
Страна-производитель диска: France
Год издания: 2010
Издатель (лейбл): RogueArt
Номер по каталогу: ROG-0029
Аудиокодек: FLAC (*.flac)
Тип рипа: tracks+.cue
Битрейт аудио: lossless
Продолжительность: 53:33
Источник (релизер): я
Наличие сканов в содержимом раздачи: да
Треклист:
1. White Birch 6:11
2. Digging for Clams 8:35
3. Death Star 1:51
4. Sevens First Edition (Taylor Ho Bynum) 5:33
5. Meat Cleaver (John Hébert) 7:00
6. Binumbed (John Hébert) 4:43
7. Air Bear 7:11
8. Sevens Second Edition (Taylor Ho Bynum) 5:53
9. How Low 6:36
All compositions Bynum / Hébert / Cleaver except where indicated.
Recorded at Firehouse 12, New Haven, CT, USA on November 3rd 2009 and on March 1st 2010.
Taylor Ho Bynum – Cornet, Flugelhorn, Bass Trumpet, Trumphone
John Hébert – Double Bass
Gerald Cleaver – Drums, Percussion
 
Лог создания рипа
Exact Audio Copy V1.0 beta 3 from 29. August 2011
EAC extraction logfile from 15. June 2014, 12:05
Taylor Ho Bynum, John Hébert, Gerald Cleaver / Book of Three
Used drive : SlimtypeeNAU508 5 Adapter: 1 ID: 0
Read mode : Secure
Utilize accurate stream : Yes
Defeat audio cache : Yes
Make use of C2 pointers : No
Read offset correction : 6
Overread into Lead-In and Lead-Out : No
Fill up missing offset samples with silence : Yes
Delete leading and trailing silent blocks : No
Null samples used in CRC calculations : Yes
Used interface : Native Win32 interface for Win NT & 2000
Gap handling : Appended to previous track
Used output format : User Defined Encoder
Selected bitrate : 768 kBit/s
Quality : High
Add ID3 tag : No
Command line compressor : C:\Program Files (x86)\Exact Audio Copy\Flac\flac.exe
Additional command line options : -8 -V -T "ARTIST=%artist%" -T "TITLE=%title%" -T "ALBUM=%albumtitle%" -T "DATE=%year%" -T "TRACKNUMBER=%tracknr%" -T "TOTALTRACKS=%numtracks%" -T "GENRE=%genre%" -T "ALBUMARTIST=%albumartist%" -T "ALBUM ARTIST=%albumartist%" -T "COMMENT=EAC Secure Mode, Test & Copy, AccurateRip, FLAC -8" %source%
TOC of the extracted CD
Track | Start | Length | Start sector | End sector
---------------------------------------------------------
1 | 0:00.00 | 6:11.21 | 0 | 27845
2 | 6:11.21 | 8:35.11 | 27846 | 66481
3 | 14:46.32 | 1:50.57 | 66482 | 74788
4 | 16:37.14 | 5:32.72 | 74789 | 99760
5 | 22:10.11 | 6:59.59 | 99761 | 131244
6 | 29:09.70 | 4:42.53 | 131245 | 152447
7 | 33:52.48 | 7:11.09 | 152448 | 184781
8 | 41:03.57 | 5:53.28 | 184782 | 211284
9 | 46:57.10 | 6:35.71 | 211285 | 240980
Track 1
Filename C:\EAC rips\01 - White Birch.wav
Pre-gap length 0:00:02.00
Peak level 77.0 %
Extraction speed 2.3 X
Track quality 100.0 %
Test CRC 3ECA3FE5
Copy CRC 3ECA3FE5
Accurately ripped (confidence 2) [184953E5] (AR v2)
Copy OK
Track 2
Filename C:\EAC rips\02 - Digging for Clams.wav
Peak level 90.3 %
Extraction speed 2.7 X
Track quality 100.0 %
Test CRC B13821EF
Copy CRC B13821EF
Accurately ripped (confidence 2) [8C1C6917] (AR v2)
Copy OK
Track 3
Filename C:\EAC rips\03 - Death Star.wav
Peak level 46.1 %
Extraction speed 2.4 X
Track quality 100.0 %
Test CRC 01D55233
Copy CRC 01D55233
Accurately ripped (confidence 2) [138985C7] (AR v2)
Copy OK
Track 4
Filename C:\EAC rips\04 - Sevens First Edition.wav
Peak level 97.7 %
Extraction speed 2.6 X
Track quality 99.9 %
Test CRC 9358ABC9
Copy CRC 9358ABC9
Accurately ripped (confidence 2) [02DC0BBE] (AR v2)
Copy OK
Track 5
Filename C:\EAC rips\05 - Meat Cleaver.wav
Peak level 96.8 %
Extraction speed 3.4 X
Track quality 100.0 %
Test CRC 7254C67D
Copy CRC 7254C67D
Accurately ripped (confidence 2) [182C9612] (AR v2)
Copy OK
Track 6
Filename C:\EAC rips\06 - Binumbed.wav
Peak level 97.7 %
Extraction speed 3.5 X
Track quality 100.0 %
Test CRC BE60E602
Copy CRC BE60E602
Accurately ripped (confidence 2) [6ABD68D6] (AR v2)
Copy OK
Track 7
Filename C:\EAC rips\07 - Air Bear.wav
Peak level 40.1 %
Extraction speed 3.8 X
Track quality 100.0 %
Test CRC 45C6CA8B
Copy CRC 45C6CA8B
Accurately ripped (confidence 2) [882FAC62] (AR v2)
Copy OK
Track 8
Filename C:\EAC rips\08 - Sevens Second Edition.wav
Peak level 81.0 %
Extraction speed 4.0 X
Track quality 100.0 %
Test CRC 2E1D175B
Copy CRC 2E1D175B
Accurately ripped (confidence 2) [F1C8EB5D] (AR v2)
Copy OK
Track 9
Filename C:\EAC rips\09 - How Low.wav
Peak level 93.9 %
Extraction speed 4.2 X
Track quality 100.0 %
Test CRC 897D302C
Copy CRC 897D302C
Accurately ripped (confidence 2) [B7467E37] (AR v2)
Copy OK
All tracks accurately ripped
No errors occurred
End of status report
---- CUETools DB Plugin V2.1.4
[CTDB TOCID: NcntMO6290FDkZmFL7A0qZFhwCg-] found
Submit result: NcntMO6290FDkZmFL7A0qZFhwCg- has been confirmed
Track | CTDB Status
1 | (2/2) Accurately ripped
2 | (2/2) Accurately ripped
3 | (2/2) Accurately ripped
4 | (2/2) Accurately ripped
5 | (2/2) Accurately ripped
6 | (2/2) Accurately ripped
7 | (2/2) Accurately ripped
8 | (2/2) Accurately ripped
9 | (2/2) Accurately ripped
==== Log checksum A03EACA414134D41EB0A282C2A3FD354392147DD79195ADE5E08075DF2E72E6C ====
 
Содержание индексной карты (.CUE)
REM GENRE "RogueArt ROG-0029"
REM DATE 2010
REM DISCID 870C8D09
REM COMMENT "ExactAudioCopy v1.0b3"
PERFORMER "Taylor Ho Bynum, John Hébert, Gerald Cleaver"
TITLE "Book of Three"
FILE "01 - White Birch.wav" WAVE
TRACK 01 AUDIO
TITLE "White Birch"
PERFORMER "Taylor Ho Bynum, John Hébert, Gerald Cleaver"
INDEX 01 00:00:00
FILE "02 - Digging for Clams.wav" WAVE
TRACK 02 AUDIO
TITLE "Digging for Clams"
PERFORMER "Taylor Ho Bynum, John Hébert, Gerald Cleaver"
INDEX 01 00:00:00
FILE "03 - Death Star.wav" WAVE
TRACK 03 AUDIO
TITLE "Death Star"
PERFORMER "Taylor Ho Bynum, John Hébert, Gerald Cleaver"
INDEX 01 00:00:00
FILE "04 - Sevens First Edition.wav" WAVE
TRACK 04 AUDIO
TITLE "Sevens First Edition"
PERFORMER "Taylor Ho Bynum, John Hébert, Gerald Cleaver"
INDEX 01 00:00:00
FILE "05 - Meat Cleaver.wav" WAVE
TRACK 05 AUDIO
TITLE "Meat Cleaver"
PERFORMER "Taylor Ho Bynum, John Hébert, Gerald Cleaver"
INDEX 01 00:00:00
FILE "06 - Binumbed.wav" WAVE
TRACK 06 AUDIO
TITLE "Binumbed"
PERFORMER "Taylor Ho Bynum, John Hébert, Gerald Cleaver"
INDEX 01 00:00:00
FILE "07 - Air Bear.wav" WAVE
TRACK 07 AUDIO
TITLE "Air Bear"
PERFORMER "Taylor Ho Bynum, John Hébert, Gerald Cleaver"
INDEX 01 00:00:00
FILE "08 - Sevens Second Edition.wav" WAVE
TRACK 08 AUDIO
TITLE "Sevens Second Edition"
PERFORMER "Taylor Ho Bynum, John Hébert, Gerald Cleaver"
INDEX 01 00:00:00
FILE "09 - How Low.wav" WAVE
TRACK 09 AUDIO
TITLE "How Low"
PERFORMER "Taylor Ho Bynum, John Hébert, Gerald Cleaver"
INDEX 01 00:00:00
03:12
308
Нет комментариев. Ваш будет первым!