Поиск

(free jazz) [cd] Sunny Murray - Sunshine & An Even Break (Never Give a Sucker) (2002), FLAC (tracks+.cue), lossless

(free jazz) [cd] Sunny Murray - Sunshine & An Even Break (Never Give a Sucker) (2002), FLAC (tracks+.cue), lossless
Треклист:
(free jazz) [cd] Sunny Murray - Sunshine & An Even Break (Never Give a Sucker) (2002), FLAC (tracks+.cue), lossless


Sunny Murray - Sunshine & An Even Break (Never Give a Sucker) (2002)

Жанр:free jazz
Год выпуска: 2002
Издатель (лейбл): Fuel 2000 / 302 061 215-2
Формат: FLAC (tracks+.cue)
Битрейт аудио: lossless
Продолжительность 57`29
Источник: what.cd, exitwizard


"Sunshine"
1 Flower Trane 13:45
2 Real 8:45
3 Red Cross 7:54
"An Even Break"
4 An Even Break (Never Give A Sucker) 7:45
5 Giblets -- Part 12 7:21
6 Complete Affection 7:15
7 Invisible Rules 5:25


 
.log
X Lossless Decoder version 20110312 (130.0)
XLD extraction logfile from 2011-03-25 19:09:58 -0700
Sunny Murray / Sunshine & An Even Break (Never Give a Sucker)
Used drive : HL-DT-ST DVDRW GSA-S10N (revision BP08)
Ripper mode : CDParanoia III 10.2
Disable audio cache : OK for the drive with a cache less than 2750KiB
Make use of C2 pointers : NO
Read offset correction : 667
Max retry count : 100
Gap status : Analyzed, Appended
TOC of the extracted CD
Track | Start | Length | Start sector | End sector
---------------------------------------------------------
1 | 00:00:00 | 13:42:16 | 0 | 61665
2 | 13:42:16 | 08:41:55 | 61666 | 100795
3 | 22:23:71 | 07:51:69 | 100796 | 136189
4 | 30:15:65 | 07:21:39 | 136190 | 169303
5 | 37:37:29 | 07:07:30 | 169304 | 201358
6 | 44:44:59 | 07:10:52 | 201359 | 233660
7 | 51:55:36 | 05:33:72 | 233661 | 258707
AccurateRip Summary
Track 01 : OK (confidence 2)
Track 02 : OK (confidence 2)
Track 03 : OK (confidence 2)
Track 04 : OK (confidence 2)
Track 05 : OK (confidence 2)
Track 06 : OK (confidence 2)
Track 07 : OK (confidence 2)
->All tracks accurately ripped.
All Tracks
Album gain : -7.56 dB
Peak : 0.992371
Statistics
Read error : 0
Skipped (treated as error) : 0
Edge jitter error (maybe fixed) : 0
Atom jitter error (maybe fixed) : 3
Drift error (maybe fixed) : 0
Dropped bytes error (maybe fixed) : 0
Duplicated bytes error (maybe fixed) : 0
Track 01
Filename : /Users/brandon/Desktop/Sunny Murray - Sunshine & An Even Break (Never Give a Sucker) (2002) [FLAC]/01 Flower Trane.flac
Pre-gap length : 00:02:00
Track gain : -6.82 dB
Peak : 0.983185
CRC32 hash (test run) : 64339E28
CRC32 hash : 64339E28
CRC32 hash (skip zero) : 48BDB306
AccurateRip signature : 8AF3E0B3
->Accurately ripped! (confidence 2)
Statistics
Read error : 0
Skipped (treated as error) : 0
Edge jitter error (maybe fixed) : 0
Atom jitter error (maybe fixed) : 0
Drift error (maybe fixed) : 0
Dropped bytes error (maybe fixed) : 0
Duplicated bytes error (maybe fixed) : 0
Inconsistency in error sectors : 0
Track 02
Filename : /Users/brandon/Desktop/Sunny Murray - Sunshine & An Even Break (Never Give a Sucker) (2002) [FLAC]/02 Real.flac
Track gain : -8.33 dB
Peak : 0.966034
CRC32 hash (test run) : 10126EBD
CRC32 hash : 10126EBD
CRC32 hash (skip zero) : C5C25BB8
AccurateRip signature : ECD79AB0
->Accurately ripped! (confidence 2)
Statistics
Read error : 0
Skipped (treated as error) : 0
Edge jitter error (maybe fixed) : 0
Atom jitter error (maybe fixed) : 0
Drift error (maybe fixed) : 0
Dropped bytes error (maybe fixed) : 0
Duplicated bytes error (maybe fixed) : 0
Inconsistency in error sectors : 0
Track 03
Filename : /Users/brandon/Desktop/Sunny Murray - Sunshine & An Even Break (Never Give a Sucker) (2002) [FLAC]/03 Red Cross.flac
Track gain : -7.13 dB
Peak : 0.992371
CRC32 hash (test run) : 361DC5BE
CRC32 hash : 361DC5BE
CRC32 hash (skip zero) : C6D79390
AccurateRip signature : BF186EB3
->Accurately ripped! (confidence 2)
Statistics
Read error : 0
Skipped (treated as error) : 0
Edge jitter error (maybe fixed) : 0
Atom jitter error (maybe fixed) : 0
Drift error (maybe fixed) : 0
Dropped bytes error (maybe fixed) : 0
Duplicated bytes error (maybe fixed) : 0
Inconsistency in error sectors : 0
Track 04
Filename : /Users/brandon/Desktop/Sunny Murray - Sunshine & An Even Break (Never Give a Sucker) (2002) [FLAC]/04 An Even Break.flac
Track gain : -2.02 dB
Peak : 0.892975
CRC32 hash (test run) : 5C598CFA
CRC32 hash : 5C598CFA
CRC32 hash (skip zero) : AC54A031
AccurateRip signature : 18471232
->Accurately ripped! (confidence 2)
Statistics
Read error : 0
Skipped (treated as error) : 0
Edge jitter error (maybe fixed) : 0
Atom jitter error (maybe fixed) : 0
Drift error (maybe fixed) : 0
Dropped bytes error (maybe fixed) : 0
Duplicated bytes error (maybe fixed) : 0
Inconsistency in error sectors : 0
Track 05
Filename : /Users/brandon/Desktop/Sunny Murray - Sunshine & An Even Break (Never Give a Sucker) (2002) [FLAC]/05 Giblets.flac
Track gain : -3.47 dB
Peak : 0.966492
CRC32 hash (test run) : 80308075
CRC32 hash : 80308075
CRC32 hash (skip zero) : A55C625C
AccurateRip signature : 2DB9EE20
->Accurately ripped! (confidence 2)
Statistics
Read error : 0
Skipped (treated as error) : 0
Edge jitter error (maybe fixed) : 0
Atom jitter error (maybe fixed) : 0
Drift error (maybe fixed) : 0
Dropped bytes error (maybe fixed) : 0
Duplicated bytes error (maybe fixed) : 0
Inconsistency in error sectors : 0
Track 06
Filename : /Users/brandon/Desktop/Sunny Murray - Sunshine & An Even Break (Never Give a Sucker) (2002) [FLAC]/06 Complete Affection.flac
Track gain : -4.12 dB
Peak : 0.951874
CRC32 hash (test run) : 2D6115E1
CRC32 hash : 2D6115E1
CRC32 hash (skip zero) : 7C2540D7
AccurateRip signature : 5DA08F9B
->Accurately ripped! (confidence 2)
Statistics
Read error : 0
Skipped (treated as error) : 0
Edge jitter error (maybe fixed) : 0
Atom jitter error (maybe fixed) : 1
Drift error (maybe fixed) : 0
Dropped bytes error (maybe fixed) : 0
Duplicated bytes error (maybe fixed) : 0
Inconsistency in error sectors : 0
Track 07
Filename : /Users/brandon/Desktop/Sunny Murray - Sunshine & An Even Break (Never Give a Sucker) (2002) [FLAC]/07 Invisible Rules.flac
Track gain : -2.35 dB
Peak : 0.930267
CRC32 hash (test run) : 2EF1D7A3
CRC32 hash : 2EF1D7A3
CRC32 hash (skip zero) : 3FB67F0A
AccurateRip signature : DD3A7B0B
->Accurately ripped! (confidence 2)
Statistics
Read error : 0
Skipped (treated as error) : 0
Edge jitter error (maybe fixed) : 0
Atom jitter error (maybe fixed) : 2
Drift error (maybe fixed) : 0
Dropped bytes error (maybe fixed) : 0
Duplicated bytes error (maybe fixed) : 0
Inconsistency in error sectors : 0
No errors occurred
End of status report
 
.cue
REM COMMENT "CUETools generated dummy CUE sheet"
PERFORMER "Sunny Murray"
TITLE "Sunshine & An Even Break (Never Give a Sucker)"
REM DATE 2002
REM GENRE "Jazz"
FILE "01 Flower Trane.flac" WAVE
TRACK 01 AUDIO
PERFORMER "Sunny Murray"
TITLE "Flower Trane"
INDEX 01 00:00:00
FILE "02 Real.flac" WAVE
TRACK 02 AUDIO
PERFORMER "Sunny Murray"
TITLE "Real"
INDEX 01 00:00:00
FILE "03 Red Cross.flac" WAVE
TRACK 03 AUDIO
PERFORMER "Sunny Murray"
TITLE "Red Cross"
INDEX 01 00:00:00
FILE "04 An Even Break.flac" WAVE
TRACK 04 AUDIO
PERFORMER "Sunny Murray"
TITLE "An Even Break"
INDEX 01 00:00:00
FILE "05 Giblets.flac" WAVE
TRACK 05 AUDIO
PERFORMER "Sunny Murray"
TITLE "Giblets"
INDEX 01 00:00:00
FILE "06 Complete Affection.flac" WAVE
TRACK 06 AUDIO
PERFORMER "Sunny Murray"
TITLE "Complete Affection"
INDEX 01 00:00:00
FILE "07 Invisible Rules.flac" WAVE
TRACK 07 AUDIO
PERFORMER "Sunny Murray"
TITLE "Invisible Rules"
INDEX 01 00:00:00
 
.accurip
[CUETools log; Date: 29/06/14 12:56:37; Version: 2.1.4]
[AccurateRip ID: 0011b9d4-0066b2ce-620d7907] found.
Track [ CRC | V2 ] Status
01 [8af3e0b3|041e9a93] (2+0/2) Accurately ripped
02 [ecd79ab0|f63a4e96] (2+0/2) Accurately ripped
03 [bf186eb3|f9119cee] (2+0/2) Accurately ripped
04 [18471232|f111addd] (2+0/2) Accurately ripped
05 [2db9ee20|2d34eb1e] (2+0/2) Accurately ripped
06 [5da08f9b|8f8ef33d] (2+0/2) Accurately ripped
07 [dd3a7b0b|5cc3acc5] (2+0/2) Accurately ripped
Track Peak [ CRC32 ] [W/O NULL]
-- 99.2 [CC0E98D8] [43C646BC]
01 98.3 [64339E28] [48BDB306]
02 96.6 [10126EBD] [C5C25BB8]
03 99.2 [361DC5BE] [C6D79390]
04 89.2 [5C598CFA] [AC54A031]
05 96.6 [80308075] [A55C625C]
06 95.1 [2D6115E1] [7C2540D7]
07 93.0 [2EF1D7A3] [3FB67F0A]

http://www.discogs.com/Sunny-Murray-Sunshine-An-Even-Break-Never-Give-A-Sucker/release/768622
другие релизы
По всем вопросам пишите личное сообщение пользователю M0p94ok.
03:11
178
Нет комментариев. Ваш будет первым!