Вы используете незарегистрированную версию компонента "Вкладки"!

Поиск

(Avant-Garde, Free Improvisation) Jimmy Giuffre - Andre Jaume with Joe McPhee - River Station - 1993, FLAC (tracks+.cue), lossless

(Avant-Garde, Free Improvisation) Jimmy Giuffre - Andre Jaume with Joe McPhee - River Station - 1993, FLAC (tracks+.cue), lossless
Треклист:
Jimmy Giuffre - Andre Jaume with Joe McPhee - River Station
Жанр: Avant-Garde, Free Improvisation
Страна-производитель диска: France
Год издания: 1993
Издатель (лейбл): CELP
Номер по каталогу: C26
Аудиокодек: FLAC (*.flac)
Тип рипа: tracks+.cue
Битрейт аудио: lossless
Продолжительность: 40:45
Источник (релизер): собственный рип с оригинального диска.
Наличие сканов в содержимом раздачи: да
Треклист:
01. Apes 2:09
02. Yell & Scamper 1:34
03. Variations (On A Monk Theme) 2:27
04. When Things Go Wrong 3:06
05. Jeux Libres 3:06
06. With Chimes 2:14
07. Lizards 1:25
08. Slap It! 2:22
09. Coll 3:28
10. River Station 3:54
11. Whispered Moments 2:42
12. 35 Smith Street 3:44
13. Three Way Split 7:10
 
Лог создания рипа
Exact Audio Copy V1.0 beta 3 from 29. August 2011
EAC extraction logfile from 6. September 2012, 21:31
Giuffre - Jaume with McPhee / River Station
Used drive : TSSTcorpCDDVDW SH-S222A Adapter: 1 ID: 0
Read mode : Secure
Utilize accurate stream : Yes
Defeat audio cache : Yes
Make use of C2 pointers : No
Read offset correction : 6
Overread into Lead-In and Lead-Out : No
Fill up missing offset samples with silence : Yes
Delete leading and trailing silent blocks : No
Null samples used in CRC calculations : Yes
Used interface : Native Win32 interface for Win NT & 2000
Gap handling : Appended to previous track
Used output format : User Defined Encoder
Selected bitrate : 1024 kBit/s
Quality : High
Add ID3 tag : No
Command line compressor : C:\Tool\CD\EAC10\FLAC\FLAC.EXE
Additional command line options : -8 -V -T "ARTIST=%artist%" -T "TITLE=%title%" -T "ALBUM=%albumtitle%" -T "DATE=%year%" -T "TRACKNUMBER=%tracknr%" -T "GENRE=%genre%" -T "PERFORMER=%albuminterpret%" -T "COMPOSER=%composer%" %haslyrics%--tag-from-file=LYRICS="%lyricsfile%"%haslyrics% -T "ALBUMARTIST=%albumartist%" -T "ALBUM ARTIST=%albumartist%" -T "DISCNUMBER=%cdnumber%" -T "TOTALDISCS=%totalcds%" -T "TOTALTRACKS=%numtracks%" -T "COMMENT=EAC V1.0 beta 3, Secure Mode, Test & Copy, AccurateRip, FLAC -8" %source% -o %dest%
TOC of the extracted CD
Track | Start | Length | Start sector | End sector
---------------------------------------------------------
1 | 0:00.32 | 2:12.05 | 32 | 9936
2 | 2:12.37 | 1:37.58 | 9937 | 17269
3 | 3:50.20 | 2:32.05 | 17270 | 28674
4 | 6:22.25 | 3:11.37 | 28675 | 43036
5 | 9:33.62 | 3:51.13 | 43037 | 60374
6 | 13:25.00 | 2:18.52 | 60375 | 70776
7 | 15:43.52 | 1:27.43 | 70777 | 77344
8 | 17:11.20 | 2:27.55 | 77345 | 88424
9 | 19:39.00 | 3:21.17 | 88425 | 103516
10 | 23:00.17 | 4:00.33 | 103517 | 121549
11 | 27:00.50 | 2:48.32 | 121550 | 134181
12 | 29:49.07 | 3:49.63 | 134182 | 151419
13 | 33:38.70 | 7:12.60 | 151420 | 183879
Track 1
Filename C:\! UPLOAD\Giuffre - Jaume with McPhee - River Station (1993) [FLAC] {CELP}\01 - Apes.wav
Pre-gap length 0:00:02.42
Peak level 91.8 %
Extraction speed 2.7 X
Track quality 100.0 %
Test CRC C7D22F6F
Copy CRC C7D22F6F
Track not present in AccurateRip database
Copy OK
Track 2
Filename C:\! UPLOAD\Giuffre - Jaume with McPhee - River Station (1993) [FLAC] {CELP}\02 - Yell & Scamper.wav
Pre-gap length 0:00:02.69
Peak level 87.9 %
Extraction speed 2.8 X
Track quality 100.0 %
Test CRC CAA53A6B
Copy CRC CAA53A6B
Track not present in AccurateRip database
Copy OK
Track 3
Filename C:\! UPLOAD\Giuffre - Jaume with McPhee - River Station (1993) [FLAC] {CELP}\03 - Variations.wav
Pre-gap length 0:00:02.84
Peak level 87.7 %
Extraction speed 2.5 X
Track quality 99.9 %
Test CRC 5B0B3522
Copy CRC 5B0B3522
Track not present in AccurateRip database
Copy OK
Track 4
Filename C:\! UPLOAD\Giuffre - Jaume with McPhee - River Station (1993) [FLAC] {CELP}\04 - When Things Go Wrong.wav
Pre-gap length 0:00:05.46
Peak level 87.9 %
Extraction speed 3.2 X
Track quality 100.0 %
Test CRC F3E9145F
Copy CRC F3E9145F
Track not present in AccurateRip database
Copy OK
Track 5
Filename C:\! UPLOAD\Giuffre - Jaume with McPhee - River Station (1993) [FLAC] {CELP}\05 - Jeux Libres.wav
Pre-gap length 0:00:03.76
Peak level 91.9 %
Extraction speed 3.3 X
Track quality 100.0 %
Test CRC A4D514E4
Copy CRC A4D514E4
Track not present in AccurateRip database
Copy OK
Track 6
Filename C:\! UPLOAD\Giuffre - Jaume with McPhee - River Station (1993) [FLAC] {CELP}\06 - With Chimes.wav
Pre-gap length 0:00:03.86
Peak level 62.4 %
Extraction speed 3.0 X
Track quality 100.0 %
Test CRC 4AECE99D
Copy CRC 4AECE99D
Track not present in AccurateRip database
Copy OK
Track 7
Filename C:\! UPLOAD\Giuffre - Jaume with McPhee - River Station (1993) [FLAC] {CELP}\07 - Lizards.wav
Pre-gap length 0:00:03.20
Peak level 63.3 %
Extraction speed 2.6 X
Track quality 100.0 %
Test CRC E27543DC
Copy CRC E27543DC
Track not present in AccurateRip database
Copy OK
Track 8
Filename C:\! UPLOAD\Giuffre - Jaume with McPhee - River Station (1993) [FLAC] {CELP}\08 - Slap It!.wav
Pre-gap length 0:00:03.57
Peak level 76.0 %
Extraction speed 2.5 X
Track quality 99.9 %
Test CRC AF3C88D6
Copy CRC AF3C88D6
Track not present in AccurateRip database
Copy OK
Track 9
Filename C:\! UPLOAD\Giuffre - Jaume with McPhee - River Station (1993) [FLAC] {CELP}\09 - Coll.wav
Pre-gap length 0:00:04.30
Peak level 79.1 %
Extraction speed 3.2 X
Track quality 100.0 %
Test CRC 52771E14
Copy CRC 52771E14
Track not present in AccurateRip database
Copy OK
Track 10
Filename C:\! UPLOAD\Giuffre - Jaume with McPhee - River Station (1993) [FLAC] {CELP}\10 - River Station.wav
Pre-gap length 0:00:04.56
Peak level 50.7 %
Extraction speed 3.3 X
Track quality 100.0 %
Test CRC 38E5281E
Copy CRC 38E5281E
Track not present in AccurateRip database
Copy OK
Track 11
Filename C:\! UPLOAD\Giuffre - Jaume with McPhee - River Station (1993) [FLAC] {CELP}\11 - Whispered Moments.wav
Pre-gap length 0:00:05.33
Peak level 77.8 %
Extraction speed 3.1 X
Track quality 100.0 %
Test CRC 03043DE9
Copy CRC 03043DE9
Track not present in AccurateRip database
Copy OK
Track 12
Filename C:\! UPLOAD\Giuffre - Jaume with McPhee - River Station (1993) [FLAC] {CELP}\12 - 35 Smith Street.wav
Pre-gap length 0:00:04.13
Peak level 97.1 %
Extraction speed 3.3 X
Track quality 100.0 %
Test CRC C4EABCB9
Copy CRC C4EABCB9
Track not present in AccurateRip database
Copy OK
Track 13
Filename C:\! UPLOAD\Giuffre - Jaume with McPhee - River Station (1993) [FLAC] {CELP}\13 - Three Way Split.wav
Pre-gap length 0:00:05.06
Peak level 96.6 %
Extraction speed 3.5 X
Track quality 100.0 %
Test CRC A1DF831E
Copy CRC A1DF831E
Track not present in AccurateRip database
Copy OK
None of the tracks are present in the AccurateRip database
No errors occurred
End of status report
==== Log checksum 29D5F9EA4024C7C87148E3868D1F757B2658B58E4F16FCBBDC708EABAD247E98 ====
 
Содержание индексной карты (.CUE)
REM GENRE Jazz
REM DATE 1993
REM DISCID 9309930D
REM COMMENT "ExactAudioCopy v1.0b3"
PERFORMER "Giuffre - Jaume with McPhee"
TITLE "River Station"
FILE "01 - Apes.wav" WAVE
TRACK 01 AUDIO
TITLE "Apes"
PERFORMER "Giuffre - Jaume with McPhee"
PREGAP 00:00:32
INDEX 01 00:00:00
TRACK 02 AUDIO
TITLE "Yell & Scamper"
PERFORMER "Giuffre - Jaume with McPhee"
INDEX 00 02:09:28
FILE "02 - Yell & Scamper.wav" WAVE
INDEX 01 00:00:00
TRACK 03 AUDIO
TITLE "Variations"
PERFORMER "Giuffre - Jaume with McPhee"
INDEX 00 01:34:70
FILE "03 - Variations.wav" WAVE
INDEX 01 00:00:00
TRACK 04 AUDIO
TITLE "When Things Go Wrong"
PERFORMER "Giuffre - Jaume with McPhee"
INDEX 00 02:26:45
FILE "04 - When Things Go Wrong.wav" WAVE
INDEX 01 00:00:00
TRACK 05 AUDIO
TITLE "Jeux Libres"
PERFORMER "Giuffre - Jaume with McPhee"
INDEX 00 03:07:55
FILE "05 - Jeux Libres.wav" WAVE
INDEX 01 00:00:00
TRACK 06 AUDIO
TITLE "With Chimes"
PERFORMER "Giuffre - Jaume with McPhee"
INDEX 00 03:47:23
FILE "06 - With Chimes.wav" WAVE
INDEX 01 00:00:00
TRACK 07 AUDIO
TITLE "Lizards"
PERFORMER "Giuffre - Jaume with McPhee"
INDEX 00 02:15:37
FILE "07 - Lizards.wav" WAVE
INDEX 01 00:00:00
TRACK 08 AUDIO
TITLE "Slap It!"
PERFORMER "Giuffre - Jaume with McPhee"
INDEX 00 01:24:00
FILE "08 - Slap It!.wav" WAVE
INDEX 01 00:00:00
TRACK 09 AUDIO
TITLE "Coll"
PERFORMER "Giuffre - Jaume with McPhee"
INDEX 00 02:23:32
FILE "09 - Coll.wav" WAVE
INDEX 01 00:00:00
TRACK 10 AUDIO
TITLE "River Station"
PERFORMER "Giuffre - Jaume with McPhee"
INDEX 00 03:16:50
FILE "10 - River Station.wav" WAVE
INDEX 01 00:00:00
TRACK 11 AUDIO
TITLE "Whispered Moments"
PERFORMER "Giuffre - Jaume with McPhee"
INDEX 00 03:55:08
FILE "11 - Whispered Moments.wav" WAVE
INDEX 01 00:00:00
TRACK 12 AUDIO
TITLE "35 Smith Street"
PERFORMER "Giuffre - Jaume with McPhee"
INDEX 00 02:44:22
FILE "12 - 35 Smith Street.wav" WAVE
INDEX 01 00:00:00
TRACK 13 AUDIO
TITLE "Three Way Split"
PERFORMER "Giuffre - Jaume with McPhee"
INDEX 00 03:44:58
FILE "13 - Three Way Split.wav" WAVE
INDEX 01 00:00:00
Доп. информация:
Recorded at R.B.Y. Recording and Video Studios, Southbury, Connecticut, USA on September 6, 1991
 
Об альбоме (сборнике)
Jimmy Giuffre has been labeled alternately a pioneer of cool, of "folk jazz," and of hopelessly abstract impressionism. While it is possible to find elements in this music that could satisfy any of these criteria, there is something unique about him that successfully avoids easy pigeon-holing. Always preferring the simple to the elaborate, he delivers up melodies that are bare naked, open-ended, and airy. Consistent with his heady constructions of the early 60s with Swallow and Bley, his paradoxical style continues to combine down-to-earth solidity with gauzed transparency.
1987's Eiffel was Andre' Jaume's first encounter with Giuffre. Previous to that time, Jaume had tended toward rather recondite experimentation. From this point on, however, Jaume's voice became more subtle, and began to make a stronger impression for its deepening maturity and confidence. River Station continues on where that album left off, delving even more deeply into autumnal, evocative mood pieces that hang in the air like a slowly turning mobile. Except for a couple of lively, rhythmic tracks, most of this recording has the two revolving around one another, never breaking contact with the unifying themes.
"Slap It" is one notable exception. As its title suggests, the technique involves the use of liberally adminstered tongue stops, traded over a bed of smoothly flowing reeds. Jaume's bass clarinet, stopping and starting on a dime, sounds lucid, rich, and full of life, despite the still relatively slow pace. The recording is close-up and personal; one can hear the satisfying click of the keys bouncing on their cork pads. "Coll" is also somewhat jaunty, but retains the same golden "end of the day" atmosphere that pervades the entire recording. Joe McPhee's valve trombone contribution to the final track is appropriately spare; he plays within their context rather than imposing his own. Giuffre elaborates with a few of his trademark upwardly rising cries, a lonely, windy voice in the distance.
The harmonies here are stunningly emotional. Certain moments are so intense they buzz, the overtones barely overlapping one another, as in the finale of "Whispered Moments," which is actually one of the more firm-handed tracks of the date. Most of River Station consists of starkly simple ideas. There are moments so precious they make you want to cry. At one point Jaume is merely blowing through his horn without invoking the reed, leaving us with the poignancy of a single, unadorned column of air flowing limpidly through space. Throughout there is an astute refinement of form, a tendency to subtract from rather than add to the body of the piece. This modesty of spirit speaks well of both players. ~ by Scot Hacker
 
Состав
Jimmy Giuffre - soprano saxophone, clarinet
André Jaume - tenor saxophone, bass clarinet
Joe McPhee - valve trombone on 13
Any questions -> support@pro-jazz.com. По всем вопросам пишите -> support@pro-jazz.com
03:52
236
Нет комментариев. Ваш будет первым!