Вы используете незарегистрированную версию компонента "Вкладки"!

Поиск

(Avant-garde, Contemporary Jazz, Experimental, Tzadik ) John Zorn ( Trevor Dunn, Ikue Mori, Kenny Wollesen, Mathieu Amalric, Steve Beck, Elizabeth Weisser, Tara O’Connor, Chris Gross ) - Rimbaud - 2012, FLAC (tracks+.cue), lossless

(Avant-garde, Contemporary Jazz, Experimental, Tzadik ) John Zorn ( Trevor Dunn, Ikue Mori, Kenny Wollesen, Mathieu Amalric, Steve Beck, Elizabeth Weisser, Tara O’Connor, Chris Gross ) - Rimbaud - 2012, FLAC (tracks+.cue), lossless
Треклист:
John Zorn / Rimbaud
Жанр: Avant-garde, Contemporary Jazz, Experimental
Страна-производитель диска: US
Год издания: 2012
Издатель (лейбл): Tzadik
Номер по каталогу: TZ 8301
Аудиокодек: FLAC (*.flac)
Тип рипа: tracks+.cue
Битрейт аудио: lossless
Продолжительность: 47:22
Источник (релизер): whatcd/APitcherOfSummer
Наличие сканов в содержимом раздачи: нет
Треклист:
1. Bateau Ivre
2. A Season in Hell
3. Illuminations
4. Conneries
 
Лог создания рипа
Exact Audio Copy V1.0 beta 3 from 29. August 2011
EAC extraction logfile from 16. September 2012, 23:41
John Zorn / Rimbaud
Used drive : TSSTcorpDVD+-RW TS-L633B Adapter: 1 ID: 0
Read mode : Secure
Utilize accurate stream : Yes
Defeat audio cache : Yes
Make use of C2 pointers : No
Read offset correction : 6
Overread into Lead-In and Lead-Out : No
Fill up missing offset samples with silence : Yes
Delete leading and trailing silent blocks : No
Null samples used in CRC calculations : Yes
Used interface : Native Win32 interface for Win NT & 2000
Gap handling : Appended to previous track
Used output format : User Defined Encoder
Selected bitrate : 1024 kBit/s
Quality : High
Add ID3 tag : No
Command line compressor : C:\Program Files\Exact Audio Copy\Flac\flac.exe
Additional command line options : -8 -V -T "ARTIST=%artist%" -T "TITLE=%title%" -T "ALBUM=%albumtitle%" -T "DATE=%year%" -T "TRACKNUMBER=%tracknr1%" -T "GENRE=%genre%" -T "PERFORMER=%albuminterpret%" -T "COMPOSER=%composer%" %haslyrics%--tag-from-file=LYRICS="%lyricsfile%"%haslyrics% -T "ALBUMARTIST=%albumartist%" -T "DISCNUMBER=%cdnumber%" -T "TOTALDISCS=%totalcds%" -T "TOTALTRACKS=%numtracks%" -T "COMMENT=%comment%" %source% -o %dest%
TOC of the extracted CD
Track | Start | Length | Start sector | End sector
---------------------------------------------------------
1 | 0:00.00 | 11:01.18 | 0 | 49592
2 | 11:01.18 | 12:21.46 | 49593 | 105213
3 | 23:22.64 | 11:38.63 | 105214 | 157626
4 | 35:01.52 | 12:20.31 | 157627 | 213157
Track 1
Filename Z:\John Zorn\Rimbaud\01 - Bateau Ivre.wav
Pre-gap length 0:00:02.00
Peak level 98.5 %
Extraction speed 3.0 X
Track quality 100.0 %
Test CRC 04696406
Copy CRC 04696406
Track not present in AccurateRip database
Copy OK
Track 2
Filename Z:\John Zorn\Rimbaud\02 - A Season In Hell.wav
Peak level 96.6 %
Extraction speed 3.8 X
Track quality 100.0 %
Test CRC 6325C348
Copy CRC 6325C348
Track not present in AccurateRip database
Copy OK
Track 3
Filename Z:\John Zorn\Rimbaud\03 - Illuminations.wav
Peak level 96.6 %
Extraction speed 4.0 X
Track quality 99.9 %
Test CRC FDA799E1
Copy CRC FDA799E1
Track not present in AccurateRip database
Copy OK
Track 4
Filename Z:\John Zorn\Rimbaud\04 - Conneries.wav
Peak level 96.6 %
Extraction speed 4.8 X
Track quality 100.0 %
Test CRC 486EBBED
Copy CRC 486EBBED
Track not present in AccurateRip database
Copy OK
None of the tracks are present in the AccurateRip database
No errors occurred
End of status report
---- CUETools DB Plugin V2.1.3
[CTDB TOCID: VeaN49cQP8zzXP6zSIlWW3BiSZE-] disk not present in database, Submit result: VeaN49cQP8zzXP6zSIlWW3BiSZE- has been uploaded
==== Log checksum 40B6AACE13332A9735F280A9905F7929153813FA6589A60E2A233066BDFC26A4 ====
 
Содержание индексной карты (.CUE)
REM DATE 2012
REM DISCID 200B1A04
REM COMMENT "ExactAudioCopy v1.0b3"
FILE "01 - Bateau Ivre.wav" WAVE
TRACK 01 AUDIO
FLAGS DCP
INDEX 01 00:00:00
FILE "02 - A Season In Hell.wav" WAVE
TRACK 02 AUDIO
FLAGS DCP
INDEX 01 00:00:00
FILE "03 - Illuminations.wav" WAVE
TRACK 03 AUDIO
FLAGS DCP
INDEX 01 00:00:00
FILE "04 - Conneries.wav" WAVE
TRACK 04 AUDIO
FLAGS DCP
INDEX 01 00:00:00
 
Об альбоме (сборнике)
An eclectic suite inspired by revolutionary French writer Arthur Rimbaud! Featuring a remarkable classical chamber work whose tempo is constantly in flux (Bateau Ivre), a powerful electronic composition (A Season in Hell), a fully notated virtuosic piano piece accompanied by an improvised free jazz rhythm section (Illuminations) and an outrageous file card piece with Zorn on sax, piano, guitar and foley effects and renegade actor/director Mathieu Amalric reading texts from Rimbaud’s intense and hilarious L’Album Zutique (Conneries). One of his most personal creations, this is a CD only Zorn could conjure up!
 
Состав
Trevor Dunn: Bass
Brad Lubman: Conductor
Ikue Mori: Laptop, Electronics
Kenny Wollesen: Drums
John Zorn: Samples, Electronics, Alto Sax, Piano, Organ, Guitar, Drums, Foley Effects
Mathieu Amalric: Voice
Steve Beck: Piano
Erik Carlson: Violin
Stephen Gosling: Piano
Chris Gross: Cello
Al Lipowski: Vibraphone
Rane Moore: Clarinet
Tara O’Connor: Flute
Elizabeth Weisser: Viola
Any questions -> support@pro-jazz.com. По всем вопросам пишите -> support@pro-jazz.com
03:53
215
Нет комментариев. Ваш будет первым!