Вы используете незарегистрированную версию компонента "Вкладки"!

Поиск

(Avant-Garde, Contemporary Jazz, Free Improvisation) Jimmy Giuffre - Andre Jaume - Eiffel - 1988, FLAC (tracks+.cue), lossless

(Avant-Garde, Contemporary Jazz, Free Improvisation) Jimmy Giuffre - Andre Jaume - Eiffel - 1988, FLAC (tracks+.cue), lossless
Треклист:
Jimmy Giuffre - Andre Jaume - Eiffel
Жанр: Avant-Garde, Contemporary Jazz, Free Improvisation
Страна-производитель диска: France
Год издания: 1988
Издатель (лейбл): CELP
Номер по каталогу: C6
Аудиокодек: FLAC (*.flac)
Тип рипа: tracks+.cue
Битрейт аудио: lossless
Продолжительность: 39:44
Источник (релизер): собственный рип с оригинального диска.
Наличие сканов в содержимом раздачи: да
Треклист:
01. Eiffel 4:30
02. Momentum 3:10
03. I'll Be There 2:40
04. Stand Point 2:00
05. Séquence 4:20
06. Once 2:20
07. Dialogue 4:20
08. Dinky Toys I 2:48
09. Dotted Line 2:40
10. Mirecourt 5:30
11. Dinky Toys II 2:58
 
Лог создания рипа
Exact Audio Copy V1.0 beta 3 from 29. August 2011
EAC extraction logfile from 6. September 2012, 20:47
Jimmy Giuffre - Andre Jaume / Eiffel
Used drive : TSSTcorpCDDVDW SH-S222A Adapter: 1 ID: 0
Read mode : Secure
Utilize accurate stream : Yes
Defeat audio cache : Yes
Make use of C2 pointers : No
Read offset correction : 6
Overread into Lead-In and Lead-Out : No
Fill up missing offset samples with silence : Yes
Delete leading and trailing silent blocks : No
Null samples used in CRC calculations : Yes
Used interface : Native Win32 interface for Win NT & 2000
Gap handling : Appended to previous track
Used output format : User Defined Encoder
Selected bitrate : 1024 kBit/s
Quality : High
Add ID3 tag : No
Command line compressor : C:\Tool\CD\EAC10\FLAC\FLAC.EXE
Additional command line options : -8 -V -T "ARTIST=%artist%" -T "TITLE=%title%" -T "ALBUM=%albumtitle%" -T "DATE=%year%" -T "TRACKNUMBER=%tracknr%" -T "GENRE=%genre%" -T "PERFORMER=%albuminterpret%" -T "COMPOSER=%composer%" %haslyrics%--tag-from-file=LYRICS="%lyricsfile%"%haslyrics% -T "ALBUMARTIST=%albumartist%" -T "ALBUM ARTIST=%albumartist%" -T "DISCNUMBER=%cdnumber%" -T "TOTALDISCS=%totalcds%" -T "TOTALTRACKS=%numtracks%" -T "COMMENT=EAC V1.0 beta 3, Secure Mode, Test & Copy, AccurateRip, FLAC -8" %source% -o %dest%
TOC of the extracted CD
Track | Start | Length | Start sector | End sector
---------------------------------------------------------
1 | 0:00.33 | 4:49.05 | 33 | 21712
2 | 4:49.38 | 3:21.32 | 21713 | 36819
3 | 8:10.70 | 2:43.15 | 36820 | 49059
4 | 10:54.10 | 2:01.38 | 49060 | 58172
5 | 12:55.48 | 4:37.55 | 58173 | 79002
6 | 17:33.28 | 2:30.72 | 79003 | 90324
7 | 20:04.25 | 4:36.40 | 90325 | 111064
8 | 24:40.65 | 3:03.20 | 111065 | 124809
9 | 27:44.10 | 3:00.70 | 124810 | 138379
10 | 30:45.05 | 5:40.73 | 138380 | 163952
11 | 36:26.03 | 3:24.30 | 163953 | 179282
Track 1
Filename C:\! UPLOAD\Jimmy Giuffre - Andre Jaume - Eiffel (1988) [FLAC] {CELP}\01 - Eiffel.wav
Pre-gap length 0:00:02.44
Peak level 24.7 %
Extraction speed 3.3 X
Track quality 100.0 %
Test CRC F6E6B0C4
Copy CRC F6E6B0C4
Accurately ripped (confidence 1) [1A310CC3] (AR v1)
Copy OK
Track 2
Filename C:\! UPLOAD\Jimmy Giuffre - Andre Jaume - Eiffel (1988) [FLAC] {CELP}\02 - Momentum.wav
Pre-gap length 0:00:07.44
Peak level 35.5 %
Extraction speed 3.3 X
Track quality 100.0 %
Test CRC 243AD044
Copy CRC 243AD044
Accurately ripped (confidence 1) [72EAF5D2] (AR v1)
Copy OK
Track 3
Filename C:\! UPLOAD\Jimmy Giuffre - Andre Jaume - Eiffel (1988) [FLAC] {CELP}\03 - I'll Be There.wav
Pre-gap length 0:00:12.80
Peak level 32.9 %
Extraction speed 3.1 X
Track quality 100.0 %
Test CRC 14316739
Copy CRC 14316739
Accurately ripped (confidence 1) [155C51EC] (AR v1)
Copy OK
Track 4
Filename C:\! UPLOAD\Jimmy Giuffre - Andre Jaume - Eiffel (1988) [FLAC] {CELP}\04 - Stand Point.wav
Pre-gap length 0:00:01.82
Peak level 31.6 %
Extraction speed 2.3 X
Track quality 99.9 %
Test CRC 62BD30A8
Copy CRC 62BD30A8
Accurately ripped (confidence 1) [624013CC] (AR v1)
Copy OK
Track 5
Filename C:\! UPLOAD\Jimmy Giuffre - Andre Jaume - Eiffel (1988) [FLAC] {CELP}\05 - Sequence.wav
Pre-gap length 0:00:09.40
Peak level 25.8 %
Extraction speed 3.4 X
Track quality 100.0 %
Test CRC 474CA69C
Copy CRC 474CA69C
Accurately ripped (confidence 1) [4C5E0517] (AR v1)
Copy OK
Track 6
Filename C:\! UPLOAD\Jimmy Giuffre - Andre Jaume - Eiffel (1988) [FLAC] {CELP}\06 - Once.wav
Pre-gap length 0:00:07.10
Peak level 43.7 %
Extraction speed 3.1 X
Track quality 100.0 %
Test CRC 0BA2E319
Copy CRC 0BA2E319
Accurately ripped (confidence 1) [ECC84A66] (AR v1)
Copy OK
Track 7
Filename C:\! UPLOAD\Jimmy Giuffre - Andre Jaume - Eiffel (1988) [FLAC] {CELP}\07 - Dialogue.wav
Pre-gap length 0:00:14.42
Peak level 46.2 %
Extraction speed 3.0 X
Track quality 99.9 %
Test CRC F3C11842
Copy CRC F3C11842
Accurately ripped (confidence 1) [1C83AB93] (AR v1)
Copy OK
Track 8
Filename C:\! UPLOAD\Jimmy Giuffre - Andre Jaume - Eiffel (1988) [FLAC] {CELP}\08 - Dinky Toys I.wav
Pre-gap length 0:00:14.76
Peak level 54.2 %
Extraction speed 2.6 X
Track quality 99.9 %
Test CRC 6177F04A
Copy CRC 6177F04A
Accurately ripped (confidence 1) [5BDC7E92] (AR v1)
Copy OK
Track 9
Filename C:\! UPLOAD\Jimmy Giuffre - Andre Jaume - Eiffel (1988) [FLAC] {CELP}\09 - Dotted Line.wav
Pre-gap length 0:00:16.69
Peak level 56.2 %
Extraction speed 2.7 X
Track quality 99.9 %
Test CRC 7E4CB8B6
Copy CRC 7E4CB8B6
Accurately ripped (confidence 1) [6BB06455] (AR v1)
Copy OK
Track 10
Filename C:\! UPLOAD\Jimmy Giuffre - Andre Jaume - Eiffel (1988) [FLAC] {CELP}\10 - Mirecourt.wav
Pre-gap length 0:00:19.86
Peak level 67.9 %
Extraction speed 3.2 X
Track quality 99.9 %
Test CRC 282E96F7
Copy CRC 282E96F7
Accurately ripped (confidence 1) [4973C582] (AR v1)
Copy OK
Track 11
Filename C:\! UPLOAD\Jimmy Giuffre - Andre Jaume - Eiffel (1988) [FLAC] {CELP}\11 - Dinky Toys II.wav
Pre-gap length 0:00:15.40
Peak level 51.2 %
Extraction speed 3.2 X
Track quality 100.0 %
Test CRC 47ECC608
Copy CRC 47ECC608
Accurately ripped (confidence 1) [C31EA990] (AR v1)
Copy OK
All tracks accurately ripped
No errors occurred
End of status report
==== Log checksum E53B2DABAA8F8F52B301614519EA1D72EF5C0B45BC5040E8A23E7DB7096D7A29 ====
 
Содержание индексной карты (.CUE)
REM GENRE Jazz
REM DATE 1988
REM DISCID A009560B
REM COMMENT "ExactAudioCopy v1.0b3"
CATALOG 0000000000000
PERFORMER "Jimmy Giuffre - Andre Jaume"
TITLE "Eiffel"
FILE "01 - Eiffel.wav" WAVE
TRACK 01 AUDIO
TITLE "Eiffel"
PERFORMER "Jimmy Giuffre - Andre Jaume"
PREGAP 00:00:33
INDEX 01 00:00:00
TRACK 02 AUDIO
TITLE "Momentum"
PERFORMER "Jimmy Giuffre - Andre Jaume"
INDEX 00 04:41:47
FILE "02 - Momentum.wav" WAVE
INDEX 01 00:00:00
TRACK 03 AUDIO
TITLE "I'll Be There"
PERFORMER "Jimmy Giuffre - Andre Jaume"
INDEX 00 03:08:47
FILE "03 - I'll Be There.wav" WAVE
INDEX 01 00:00:00
TRACK 04 AUDIO
TITLE "Stand Point"
PERFORMER "Jimmy Giuffre - Andre Jaume"
INDEX 00 02:41:28
FILE "04 - Stand Point.wav" WAVE
INDEX 01 00:00:00
TRACK 05 AUDIO
TITLE "Sequence"
PERFORMER "Jimmy Giuffre - Andre Jaume"
INDEX 00 01:52:08
FILE "05 - Sequence.wav" WAVE
INDEX 01 00:00:00
TRACK 06 AUDIO
TITLE "Once"
PERFORMER "Jimmy Giuffre - Andre Jaume"
INDEX 00 04:30:47
FILE "06 - Once.wav" WAVE
INDEX 01 00:00:00
TRACK 07 AUDIO
TITLE "Dialogue"
PERFORMER "Jimmy Giuffre - Andre Jaume"
INDEX 00 02:16:40
FILE "07 - Dialogue.wav" WAVE
INDEX 01 00:00:00
TRACK 08 AUDIO
TITLE "Dinky Toys I"
PERFORMER "Jimmy Giuffre - Andre Jaume"
INDEX 00 04:21:58
FILE "08 - Dinky Toys I.wav" WAVE
INDEX 01 00:00:00
TRACK 09 AUDIO
TITLE "Dotted Line"
PERFORMER "Jimmy Giuffre - Andre Jaume"
INDEX 00 02:46:43
FILE "09 - Dotted Line.wav" WAVE
INDEX 01 00:00:00
TRACK 10 AUDIO
TITLE "Mirecourt"
PERFORMER "Jimmy Giuffre - Andre Jaume"
INDEX 00 02:41:05
FILE "10 - Mirecourt.wav" WAVE
INDEX 01 00:00:00
TRACK 11 AUDIO
TITLE "Dinky Toys II"
PERFORMER "Jimmy Giuffre - Andre Jaume"
INDEX 00 05:25:43
FILE "11 - Dinky Toys II.wav" WAVE
INDEX 01 00:00:00
Доп. информация:
Concert recording at Musée d'Art Moderne, Paris, November 8th 1987
 
Об альбоме (сборнике)
This is the first of a pair of recorded live dates between reedmen Jimmy Giuffre and André Jaume -- the other one was recorded a few months later at Willisau and released on Hat. Where the latter date focuses on Giuffre's compositions and duet improvisation, this one is its mirror image: a concert dedicated to the music of Jaume and duo improvs. The mood is mellow, somewhat abstract, but completely flowing and melodic throughout. Jaume is a consummate composer for two horns, as is evidence by the slow, methodical, and hauntingly beautiful title track with Giuffre's clarinet playing direct melodic counterpoint to Jaume's tenor saxophone.
Like Giuffre, Jaume is a master of dynamic, considering the tonal and timbral possibilities before he ever sets an idea in motion, and hoping to retrieve from his partner some new line of question and answer along those parameters. One of the improvisations, "I'll Be There" seeks its opening voice in the vibrational exchange between clarinet and tenor, and then between soprano and tenor -- eventually weaving both tonalities into a third for each man to explore. On Giuffre's "Once," the blues frame becomes the architectural building block where the foundations of the 12 bars and their jazz extrapolations build into harmonic dialogue and inquiry. There are no repeated lines. The two centerpieces are Jaume's stellar "Dinky Toys" pieces -- both written for Giuffre -- where in one case clarinet and in another soprano become rhythm and lead instruments simultaneously with a swing line written through the middle for Jaume to comp on, opening up the distinct possibility of a new lyric harmony inside the tune's body. This is a wonderful and necessary companion to Live at Willisau. ~ by Thom Jurek
 
Состав
André Jaume, Jimmy Giuffre - reeds
Any questions -> support@pro-jazz.com. По всем вопросам пишите -> support@pro-jazz.com
03:51
250
Нет комментариев. Ваш будет первым!