Поиск

(Avant-Garde / Free Improvisation) Ground Zero - Last Concert - 1999, APE (image + .cue), lossless

Треклист:
Ground Zero - Last Concert

Страна: Japan
Жанр: Avant-Garde / Free Improvisation
Год выпуска: 1999
Формат: APE (image + .cue)
Битрейт аудио: lossless
Продолжительность: 1:12:23
Трэклист:
01 - Multi Gravity-1 [15:39]
02 - Multi Gravity-2 [16:06]
03 - Consume Red [40:37]
Доп. информация: (очень) страшные японцы во главе с Otomo Yoshihide
Ground Zero - Consume Red в lossless
дискография Ground Zero в mp3
попробовать послушать можно тут http://www.last.fm/music/Ground+Zero/Last+Concert
 
инфо
Ground-Zero:
Otomo Yoshihide: turntables, guitar
Junji Hirose: sax
Naruyoshi Kikuchi: sax
Masahiko Okura: sax
Shuichi Chino: prophet-5
Sachiko M: sampler
Tatsuki Masuko: DX-7
Kazunao Nagata: ARP-2600
Yumiko Tanaka: futozao-shamisen, koto
Mitsuru Nasuno: bass
Masahiro Uemura: drums
Yasuhiro Yoshigaki: drums
Yoshiaki Kondo: sound system engineer
Recorded live by Yoshiaki Kondo and Yumi Kobayashi at On Air West in Shibuya, Tokyo, March 8, 1998
Mixed by Yoshiaki Kondo at GOK Sound, Tokyo, March and November 1998
Mastered by Kazunao Nagata at Transonic Studio, Tokyo, December 1998
Designed Akira Sasaki
Produced by Ground Zero
Includes liner notes by Atsushi Sasaki in Japanese (AMOEBiC) / English (Alcohol)
Released in June 1999 (Japan) / November 1999 (UK)
http://www.japanimprov.com/yotomo/groundzero/index.html
рип скачан с осла. есть немножечко сканов.
 
отчет EAC
Exact Audio Copy V0.99 prebeta 3 from 28. July 2007
EAC extraction logfile from 2. December 2007, 0:20
Ground Zero / Last Concert
Used drive : PLEXTOR DVDR PX-750A Adapter: 3 ID: 0
Read mode : Secure
Utilize accurate stream : Yes
Defeat audio cache : Yes
Make use of C2 pointers : No
Read offset correction : 102
Overread into Lead-In and Lead-Out : No
Fill up missing offset samples with silence : Yes
Delete leading and trailing silent blocks : No
Null samples used in CRC calculations : Yes
Used interface : Installed external ASPI interface
Used output format : User Defined Encoder
Selected bitrate : 128 kBit/s
Quality : High
Add ID3 tag : No
Command line compressor : C:\Program Files\Exact Audio Copy\wapet.exe
Additional command line options : %d -t "Artist=%a" -t "Title=%t" -t "Album=%g" -t "Year=%y" -t "Track=%n" -t "Genre=%m" mac.exe %s %d -c3000 -v
TOC of the extracted CD
Track | Start | Length | Start sector | End sector
---------------------------------------------------------
1 | 0:00.00 | 15:39.73 | 0 | 70497
2 | 15:39.73 | 16:06.13 | 70498 | 142960
3 | 31:46.11 | 40:37.02 | 142961 | 325737
Range status and errors
Selected range
Filename D:\W\New Folder\Ground Zero - Last Concert.wav
Peak level 100.0 %
Range quality 99.9 %
Copy CRC 50E1F77C
Copy OK
No errors occurred
AccurateRip summary
Track 1 not present in database
Track 2 not present in database
Track 3 not present in database
None of the tracks are present in the AccurateRip database
End of status report
 
вердикт Tau Analyzer'а и картинки спектров (увеличение кликом)
Приватный:
Нет (DHT включён)
Размер:
522.23 Мб (547,602,088 байт) » файлов: 5
Участники:
0 раздают, 0 качают (0 участников всего)
Внешние участники:
1 раздают, 0 качают (1 участников всего) [ Обновить ]
Есть вопросы - пишите личное сообщение пользователю M0p94ok.
23:46
55
Нет комментариев. Ваш будет первым!