Поиск

(Avant-Garde) Sven Larsson-DIDGERIBONE(Four Leaf Clover Records) - 2000, APE (image + .cue), lossless

Треклист:
Sven Larsson-DIDGERIBONE(Four Leaf Clover Records)
Страна: Sweden
Жанр: Avant-Garde
Год выпуска: 2000
Формат: APE (image + .cue)
Битрейт аудио: lossless
Продолжительность: 40:04
Трэклист:
1.One talking 3:37
2.I'm getting sentimental over you 5:54
3.Three walking 2:50
4.Bukka 3:26
5.Mood Indigo 5:07
6.Quadrobone 2:30
7.Boneologue 5:12
8.City Jungle 11.28
Sven Larsson играет соло на бас-тромбоне и диджериду весь альбом.
Доп. информация: СКАНЫ В НАЛИЧИИ
 
скрытый текст
Exact Audio Copy V0.99 prebeta 3 from 28. July 2007
Отчёт EAC об извлечении, выполненном 28. февраля 2008, 17:29
Unknown Artist / Unknown Title
Дисковод: TEAC CD-W540E Adapter: 0 ID: 1
Режим чтения : Достоверность
Использование точного потока : Да
Отключение кэша аудио : Да
Использование указателей C2 : Нет
Коррекция смещения при чтении : 686
Способность читать области Lead-in и Lead-out : Нет
Заполнение пропущенных сэмплов тишиной : Да
Удаление блоков с тишиной в начале и конце : Нет
При вычислениях CRC использовались нулевые сэмплы : Да
Интерфейс : Установленный внешний ASPI-интерфейс
Выходной формат : Monkey's Audio Lossless Encoder v3.99 DLL
Формат сэмплов : High Lossless Compression
TOC извлечённого CD
Трек | Старт | Длительность | Начальный сектор | Конечный сектор
---------------------------------------------------------------------
1 | 0:00.00 | 3:36.18 | 0 | 16217
2 | 3:36.18 | 5:54.17 | 16218 | 42784
3 | 9:30.35 | 2:49.07 | 42785 | 55466
4 | 12:19.42 | 3:25.57 | 55467 | 70898
5 | 15:45.24 | 5:07.73 | 70899 | 93996
6 | 20:53.22 | 2:32.05 | 93997 | 105401
7 | 23:25.27 | 5:11.38 | 105402 | 128764
8 | 28:36.65 | 11:23.28 | 128765 | 180017
Характеристики диапазона извлечения и сообщения об ошибках
Выбранный диапазон
Имя файла C:\Documents and Settings\1\Рабочий стол\Sven Larsson-Didgeribone.ape
Пиковый уровень 100.0 %
Качество диапазона 100.0 %
CRC теста 7E6F5BC0
CRC копии 7E6F5BC0
Копирование... OK
Ошибок не произошло
AccurateRip: сводка
Трек 1 нет в базе данных
Трек 2 нет в базе данных
Трек 3 нет в базе данных
Трек 4 нет в базе данных
Трек 5 нет в базе данных
Трек 6 нет в базе данных
Трек 7 нет в базе данных
Трек 8 нет в базе данных
Ни одного трека нет в базе AccurateRip
Конец отчёта
Приватный:
Нет (DHT включён)
Размер:
136.07 Мб (142,681,603 байт) » файлов: 9
Участники:
0 раздают, 0 качают (0 участников всего)
Внешние участники:
1 раздают, 0 качают (1 участников всего) [ Обновить ]
No seeders - write a personal message to user M0p94ok. Нет сидеров - пишите личное сообщение пользователю M0p94ok.
23:45
75
Нет комментариев. Ваш будет первым!