Поиск

(Avant-Garde\ECM) Mat Maneri-TRINITY - 2001, APE (image + .cue), lossless

Треклист:
Mat Maneri-TRINITY
Страна: Germany
Жанр: Avant-Garde
Год выпуска: 2001
Формат: APE (image + .cue)
Битрейт аудио: lossless
Продолжительность: 63:52
Трэклист:
1 Pure Mode. Shipp 3:54
2 Almost Pretty. Maneri 4:39
3 Trinity. Maneri 10:04
4 Sun Ship. Coltrane 7:22
5 Blue Deco. Maneri 8:29
6 Veiled. Maneri 5:08
7 Iron Man. Dolphy 3:13
8 Lattice. Morris 3:22
9 November 1st. Maneri 10:48
10 Lady Day's Lament. Maneri 6:47
Доп. информация: Mat Maneri - Violin, Viola(весь альбом играет соло)
Сканы в наличии.
http://rutracker.org/forum/viewtopic.php?t=695995 -альбом,где Mat играет с братом Joe Maneri (Clarinet, Piano, Sax (Alto), Sax (Tenor)),John Lockwood (Double Bass),Randy Peterson(Percussion, Drums)
[url]http://rutracker.org/forum/viewtopic.php?t=709552[/url]-еще Mat Maneri - Viola
 
скрытый текст
Exact Audio Copy V0.99 prebeta 3 from 28. July 2007
Отчёт EAC об извлечении, выполненном 29. февраля 2008, 18:48
Mat Maneri / Trinity
Дисковод: TEAC CD-W540E Adapter: 0 ID: 1
Режим чтения : Достоверность
Использование точного потока : Да
Отключение кэша аудио : Да
Использование указателей C2 : Нет
Коррекция смещения при чтении : 686
Способность читать области Lead-in и Lead-out : Нет
Заполнение пропущенных сэмплов тишиной : Да
Удаление блоков с тишиной в начале и конце : Нет
При вычислениях CRC использовались нулевые сэмплы : Да
Интерфейс : Установленный внешний ASPI-интерфейс
Выходной формат : Monkey's Audio Lossless Encoder v3.99 DLL
Формат сэмплов : High Lossless Compression
TOC извлечённого CD
Трек | Старт | Длительность | Начальный сектор | Конечный сектор
---------------------------------------------------------------------
1 | 0:00.00 | 3:54.55 | 0 | 17604
2 | 3:54.55 | 4:39.12 | 17605 | 38541
3 | 8:33.67 | 10:04.18 | 38542 | 83859
4 | 18:38.10 | 7:22.45 | 83860 | 117054
5 | 26:00.55 | 8:29.15 | 117055 | 155244
6 | 34:29.70 | 5:08.60 | 155245 | 178404
7 | 39:38.55 | 3:13.47 | 178405 | 192926
8 | 42:52.27 | 3:22.48 | 192927 | 208124
9 | 46:15.00 | 10:48.02 | 208125 | 256726
10 | 57:03.02 | 6:47.40 | 256727 | 287291
Характеристики диапазона извлечения и сообщения об ошибках
Выбранный диапазон
Имя файла C:\Documents and Settings\1\Рабочий стол\Mat Maneri - Trinity.ape
Пиковый уровень 99.7 %
Качество диапазона 100.0 %
CRC теста D10A14C2
CRC копии D10A14C2
Копирование... OK
Ошибок не произошло
AccurateRip: сводка
Трек 1 нет в базе данных
Трек 2 нет в базе данных
Трек 3 нет в базе данных
Трек 4 нет в базе данных
Трек 5 нет в базе данных
Трек 6 нет в базе данных
Трек 7 нет в базе данных
Трек 8 нет в базе данных
Трек 9 нет в базе данных
Трек 10 нет в базе данных
Ни одного трека нет в базе AccurateRip
Конец отчёта
Приватный:
Нет (DHT включён)
Размер:
261.70 Мб (274,411,314 байт) » файлов: 10
Участники:
0 раздают, 0 качают (0 участников всего)
Внешние участники:
3 раздают, 1 качают (4 участников всего) [ Обновить ]
No seeders - write a personal message to user M0p94ok. Нет сидеров - пишите личное сообщение пользователю M0p94ok.
23:46
89
Нет комментариев. Ваш будет первым!