Поиск

(Avant-Garde) Joe Maneri Quartet-IN FULL CRY(ECM) - 1997, APE (image + .cue), lossless

Треклист:
Joe Maneri Quartet- IN FULL CRY (ECM)
Страна: Germany
Жанр: Avant-Garde
Год выпуска: 1997
Формат: APE (image + .cue)
Битрейт аудио: lossless
Продолжительность: 62:26
Трэклист:
1 Coarser and Finer. Maneri, Maneri, Peterson 3:02
2 Tenderly. Gross, Lawrence 9:33
3 Outside the Dance Hall. Lockwood, Maneri, Maneri ... 4:47
4 A Kind of Birth. Lockwood, Maneri, Maneri ... 5:04
5 The Seed and All. Lockwood, Maneri, Maneri ... 4:14
6 Pulling the Boat In. Lockwood, Maneri, Maneri 2:16
7 Nobody Knows. Traditional 8:23
8 In Full Cry. Lockwood, Maneri, Maneri ... 7:52
9 Shaw Was a Good Man, Peewee. Lockwood, Maneri, Peterson 5:07
10 Lift . Maneri, Maneri, Peterson 2:19
11 Motherless Child. Traditional 3:23
12 Prelude to a Kiss. Ellington, Gordon, Mills 6:20
Доп. информация:
Joe Maneri Clarinet, Piano, Sax (Alto), Sax (Tenor)
Mat Maneri Violin (Electric)- http://rutracker.org/forum/viewtopic.php?t=694627 -его альбом соло.
John Lockwood Double Bass
Randy Peterson Percussion, Drums
+ сканы
 
скрытый текст
Exact Audio Copy V0.99 prebeta 3 from 28. July 2007
Отчёт EAC об извлечении, выполненном 1. марта 2008, 9:02
Joe Maneri / In Full Cry
Дисковод: TEAC CD-W540E Adapter: 0 ID: 1
Режим чтения : Достоверность
Использование точного потока : Да
Отключение кэша аудио : Да
Использование указателей C2 : Нет
Коррекция смещения при чтении : 686
Способность читать области Lead-in и Lead-out : Нет
Заполнение пропущенных сэмплов тишиной : Да
Удаление блоков с тишиной в начале и конце : Нет
При вычислениях CRC использовались нулевые сэмплы : Да
Интерфейс : Установленный внешний ASPI-интерфейс
Выходной формат : Monkey's Audio Lossless Encoder v3.99 DLL
Формат сэмплов : High Lossless Compression
TOC извлечённого CD
Трек | Старт | Длительность | Начальный сектор | Конечный сектор
---------------------------------------------------------------------
1 | 0:00.00 | 3:02.17 | 0 | 13666
2 | 3:02.17 | 9:33.48 | 13667 | 56689
3 | 12:35.65 | 4:47.62 | 56690 | 78276
4 | 17:23.52 | 5:04.50 | 78277 | 101126
5 | 22:28.27 | 4:14.58 | 101127 | 120234
6 | 26:43.10 | 2:16.07 | 120235 | 130441
7 | 28:59.17 | 8:23.18 | 130442 | 168184
8 | 37:22.35 | 7:52.40 | 168185 | 203624
9 | 45:15.00 | 5:07.10 | 203625 | 226659
10 | 50:22.10 | 2:19.37 | 226660 | 237121
11 | 52:41.47 | 3:23.65 | 237122 | 252411
12 | 56:05.37 | 6:20.55 | 252412 | 280966
Характеристики диапазона извлечения и сообщения об ошибках
Выбранный диапазон
Имя файла J:\Downloads\Joe Maneri Quartet-IN FULL CRY\Joe Maneri - In Full Cry.ape
Пиковый уровень 99.7 %
Качество диапазона 100.0 %
CRC теста C5FFBC3A
CRC копии C5FFBC3A
Копирование... OK
Ошибок не произошло
AccurateRip: сводка
Трек 1 нет в базе данных
Трек 2 нет в базе данных
Трек 3 нет в базе данных
Трек 4 нет в базе данных
Трек 5 нет в базе данных
Трек 6 нет в базе данных
Трек 7 нет в базе данных
Трек 8 нет в базе данных
Трек 9 нет в базе данных
Трек 10 нет в базе данных
Трек 11 нет в базе данных
Трек 12 нет в базе данных
Ни одного трека нет в базе AccurateRip
Конец отчёта
Приватный:
Нет (DHT включён)
Размер:
313.96 Мб (329,211,345 байт) » файлов: 14
Участники:
0 раздают, 0 качают (0 участников всего)
Внешние участники:
3 раздают, 1 качают (4 участников всего) [ Обновить ]
Есть вопросы - пишите личное сообщение пользователю M0p94ok.
23:47
54
Нет комментариев. Ваш будет первым!