Вы используете незарегистрированную версию компонента "Вкладки"!

Поиск

(Avant-Garde, Free Improvisation, Experimental) [CD] The Intuition Orchestra - To The Inside - 2014, FLAC (tracks+.cue), lossless

(Avant-Garde, Free Improvisation, Experimental) [CD] The Intuition Orchestra - To The Inside - 2014, FLAC (tracks+.cue), lossless
Треклист:
The Intuition Orchestra - To The Inside
Жанр: Avant-Garde, Free Improvisation, Experimental
Носитель: CD
Страна-производитель диска: Poland
Год издания: 2014
Издатель (лейбл): ForTune
Номер по каталогу: 0026(017)
Страна: Poland
Аудиокодек: FLAC (*.flac)
Тип рипа: tracks+.cue
Битрейт аудио: lossless
Продолжительность: 52:22
Источник (релизер): IsraBox (sddd)
Наличие сканов в содержимом раздачи: нет
Треклист:
01 Czas było ruszać (01:27)
02 Transuranowce (03:17)
03 Oszałamiające wysokości Sierra Madre (04:58)
04 Kolonizacja uwalanych smarem (05:35)
05 Zeriba, zeriba (05:11)
06 Stolon (03:30)
07 Koszmarnie się upijał (07:32)
08 Dziwactwo i zabobon (05:38)
09 Cała podróż (04:49)
10 Transsylwania (03:28)
11 Do wewnątrz (02:46)
12 Aspergillus (bonus track) (04:11)
 
Лог создания рипа
Exact Audio Copy V1.0 beta 3 from 29. August 2011
EAC extraction logfile from 8. May 2014, 0:22
The Intuition Orchestra / To The Inside
Used drive : TSSTcorpCDDVDW SE-208DB Adapter: 2 ID: 0
Read mode : Secure
Utilize accurate stream : Yes
Defeat audio cache : Yes
Make use of C2 pointers : No
Read offset correction : 6
Overread into Lead-In and Lead-Out : No
Fill up missing offset samples with silence : Yes
Delete leading and trailing silent blocks : No
Null samples used in CRC calculations : Yes
Used interface : Native Win32 interface for Win NT & 2000
Gap handling : Appended to previous track
Used output format : User Defined Encoder
Selected bitrate : 1024 kBit/s
Quality : High
Add ID3 tag : No
Command line compressor : C:\Program Files (x86)\Exact Audio Copy\FLAC\FLAC.EXE
Additional command line options : -8 -V -T "ARTIST=%artist%" -T "TITLE=%title%" -T "ALBUM=%albumtitle%" -T "DATE=%year%" -T "TRACKNUMBER=%tracknr%" -T "GENRE=%genre%" -T "PERFORMER=%albuminterpret%" -T "COMPOSER=%composer%" %haslyrics%--tag-from-file=LYRICS="%lyricsfile%"%haslyrics% -T "ALBUMARTIST=%albumartist%" -T "DISCNUMBER=%cdnumber%" -T "TOTALDISCS=%totalcds%" -T "TOTALTRACKS=%numtracks%" -T "COMMENT=%comment%" %source% -o %dest%
TOC of the extracted CD
Track | Start | Length | Start sector | End sector
---------------------------------------------------------
1 | 0:00.00 | 1:27.00 | 0 | 6524
2 | 1:27.00 | 3:17.00 | 6525 | 21299
3 | 4:44.00 | 4:58.00 | 21300 | 43649
4 | 9:42.00 | 5:35.00 | 43650 | 68774
5 | 15:17.00 | 5:11.00 | 68775 | 92099
6 | 20:28.00 | 3:30.00 | 92100 | 107849
7 | 23:58.00 | 7:32.00 | 107850 | 141749
8 | 31:30.00 | 5:38.00 | 141750 | 167099
9 | 37:08.00 | 4:49.00 | 167100 | 188774
10 | 41:57.00 | 3:28.00 | 188775 | 204374
11 | 45:25.00 | 2:46.00 | 204375 | 216824
12 | 48:11.00 | 4:11.00 | 216825 | 235649
Track 1
Filename W:\_MUSIC ALL\The Intuition Orchestra - To The Inside (2014) [FLAC]\01. Czas było ruszać.wav
Pre-gap length 0:00:02.00
Peak level 86.0 %
Extraction speed 1.6 X
Track quality 100.0 %
Test CRC F5BD0C30
Copy CRC F5BD0C30
Track not present in AccurateRip database
Copy OK
Track 2
Filename W:\_MUSIC ALL\The Intuition Orchestra - To The Inside (2014) [FLAC]\02. Transuranowce.wav
Peak level 96.8 %
Extraction speed 2.5 X
Track quality 100.0 %
Test CRC F86A1821
Copy CRC F86A1821
Track not present in AccurateRip database
Copy OK
Track 3
Filename W:\_MUSIC ALL\The Intuition Orchestra - To The Inside (2014) [FLAC]\03. Oszałamiające wysokości Sierra Madre.wav
Peak level 96.8 %
Extraction speed 2.9 X
Track quality 100.0 %
Test CRC D4DE5C98
Copy CRC D4DE5C98
Track not present in AccurateRip database
Copy OK
Track 4
Filename W:\_MUSIC ALL\The Intuition Orchestra - To The Inside (2014) [FLAC]\04. Kolonizacja uwalanych smarem.wav
Peak level 96.8 %
Extraction speed 2.8 X
Track quality 99.9 %
Test CRC AD1649BD
Copy CRC AD1649BD
Track not present in AccurateRip database
Copy OK
Track 5
Filename W:\_MUSIC ALL\The Intuition Orchestra - To The Inside (2014) [FLAC]\05. Zeriba, zeriba.wav
Peak level 96.8 %
Extraction speed 3.5 X
Track quality 100.0 %
Test CRC 8F5141C3
Copy CRC 8F5141C3
Track not present in AccurateRip database
Copy OK
Track 6
Filename W:\_MUSIC ALL\The Intuition Orchestra - To The Inside (2014) [FLAC]\06. Stolon.wav
Peak level 96.8 %
Extraction speed 3.5 X
Track quality 100.0 %
Test CRC 4F137287
Copy CRC 4F137287
Track not present in AccurateRip database
Copy OK
Track 7
Filename W:\_MUSIC ALL\The Intuition Orchestra - To The Inside (2014) [FLAC]\07. Koszmarnie się upijał.wav
Peak level 96.8 %
Extraction speed 4.1 X
Track quality 100.0 %
Test CRC 4C3C4AF9
Copy CRC 4C3C4AF9
Track not present in AccurateRip database
Copy OK
Track 8
Filename W:\_MUSIC ALL\The Intuition Orchestra - To The Inside (2014) [FLAC]\08. Dziwactwo i zabobon.wav
Peak level 96.8 %
Extraction speed 3.6 X
Track quality 99.9 %
Test CRC 115926D7
Copy CRC 115926D7
Track not present in AccurateRip database
Copy OK
Track 9
Filename W:\_MUSIC ALL\The Intuition Orchestra - To The Inside (2014) [FLAC]\09. Cała podróż.wav
Peak level 97.1 %
Extraction speed 4.3 X
Track quality 100.0 %
Test CRC E500D979
Copy CRC E500D979
Track not present in AccurateRip database
Copy OK
Track 10
Filename W:\_MUSIC ALL\The Intuition Orchestra - To The Inside (2014) [FLAC]\10. Transsylwania.wav
Peak level 95.9 %
Extraction speed 4.3 X
Track quality 100.0 %
Test CRC 441C2BD3
Copy CRC 441C2BD3
Track not present in AccurateRip database
Copy OK
Track 11
Filename W:\_MUSIC ALL\The Intuition Orchestra - To The Inside (2014) [FLAC]\11. Do wewnątrz.wav
Peak level 97.1 %
Extraction speed 3.2 X
Track quality 99.9 %
Test CRC A7BC58F9
Copy CRC A7BC58F9
Track not present in AccurateRip database
Copy OK
Track 12
Filename W:\_MUSIC ALL\The Intuition Orchestra - To The Inside (2014) [FLAC]\12. Aspergillus.wav
Peak level 83.9 %
Extraction speed 3.7 X
Track quality 99.9 %
Test CRC 4629987A
Copy CRC 4629987A
Track not present in AccurateRip database
Copy OK
None of the tracks are present in the AccurateRip database
No errors occurred
End of status report
---- CUETools DB Plugin V2.1.3
[CTDB TOCID: q_knbghSyjlhWQZcYkr9hMkqXxg-] found, Submit result: q_knbghSyjlhWQZcYkr9hMkqXxg- has been uploaded
[d5a12c8c] (1/1) No match
==== Log checksum 4AC25D8171E04B09D42E53B6631F0124D57669BB25AA92E11B6E35C511AED605 ====
 
Содержание индексной карты (.CUE)
REM GENRE Jazz
REM DATE 2014
REM DISCID AA0C460C
REM COMMENT "ExactAudioCopy v1.0b3"
PERFORMER "The Intuition Orchestra"
TITLE "To The Inside"
FILE "01. Czas bylo ruszac.wav" WAVE
TRACK 01 AUDIO
TITLE "Czas bylo ruszac"
PERFORMER "The Intuition Orchestra"
ISRC PLH161400166
INDEX 01 00:00:00
FILE "02. Transuranowce.wav" WAVE
TRACK 02 AUDIO
TITLE "Transuranowce"
PERFORMER "The Intuition Orchestra"
ISRC PLH161400167
INDEX 01 00:00:00
FILE "03. Oszalamiajace wysokosci Sierra Madre.wav" WAVE
TRACK 03 AUDIO
TITLE "Oszalamiajace wysokosci Sierra Madre"
PERFORMER "The Intuition Orchestra"
ISRC PLH161400168
INDEX 01 00:00:00
FILE "04. Kolonizacja uwalanych smarem.wav" WAVE
TRACK 04 AUDIO
TITLE "Kolonizacja uwalanych smarem"
PERFORMER "The Intuition Orchestra"
ISRC PLH161400169
INDEX 01 00:00:00
FILE "05. Zeriba, zeriba.wav" WAVE
TRACK 05 AUDIO
TITLE "Zeriba, zeriba"
PERFORMER "The Intuition Orchestra"
ISRC PLH161400170
INDEX 01 00:00:00
FILE "06. Stolon.wav" WAVE
TRACK 06 AUDIO
TITLE "Stolon"
PERFORMER "The Intuition Orchestra"
ISRC PLH161400171
INDEX 01 00:00:00
FILE "07. Koszmarnie sie upijal.wav" WAVE
TRACK 07 AUDIO
TITLE "Koszmarnie sie upijal"
PERFORMER "The Intuition Orchestra"
ISRC PLH161400172
INDEX 01 00:00:00
FILE "08. Dziwactwo i zabobon.wav" WAVE
TRACK 08 AUDIO
TITLE "Dziwactwo i zabobon"
PERFORMER "The Intuition Orchestra"
ISRC PLH161400173
INDEX 01 00:00:00
FILE "09. Cala podroz.wav" WAVE
TRACK 09 AUDIO
TITLE "Cala podroz"
PERFORMER "The Intuition Orchestra"
ISRC PLH161400174
INDEX 01 00:00:00
FILE "10. Transsylwania.wav" WAVE
TRACK 10 AUDIO
TITLE "Transsylwania"
PERFORMER "The Intuition Orchestra"
ISRC PLH161400175
INDEX 01 00:00:00
FILE "11. Do wewnatrz.wav" WAVE
TRACK 11 AUDIO
TITLE "Do wewnatrz"
PERFORMER "The Intuition Orchestra"
ISRC PLH161400176
INDEX 01 00:00:00
FILE "12. Aspergillus.wav" WAVE
TRACK 12 AUDIO
TITLE "Aspergillus"
PERFORMER "The Intuition Orchestra"
ISRC PLH161400177
INDEX 01 00:00:00
 
Лог проверки качества
AUDIOCHECKER v2.0 beta (build 457) - by Dester - opdester@freemail.hu
~~~~~~~~~~~~~~~~~~~~~~~~~~~~~~~~~~
-=== DO NOT EDIT THIS FILE! ===-
Path: ...\The Intuition Orchestra - To The Inside (2014) [FLAC]
01 -=- 01. Czas bylo ruszac.flac -=- CDDA (100%)
02 -=- 02. Transuranowce.flac -=- CDDA (100%)
03 -=- 03. Oszalamiajace wysokosci Sierra Madre.flac -=- CDDA (100%)
04 -=- 04. Kolonizacja uwalanych smarem.flac -=- CDDA (100%)
05 -=- 05. Zeriba, zeriba.flac -=- CDDA (100%)
06 -=- 06. Stolon.flac -=- CDDA (100%)
07 -=- 07. Koszmarnie sie upijal.flac -=- CDDA (99%)
08 -=- 08. Dziwactwo i zabobon.flac -=- CDDA (100%)
09 -=- 09. Cala podroz.flac -=- CDDA (100%)
10 -=- 10. Transsylwania.flac -=- CDDA (100%)
11 -=- 11. Do wewnatrz.flac -=- CDDA (100%)
12 -=- 12. Aspergillus.flac -=- ERROR
Summary 99,91% CDDA
257611540
 
Об исполнителе (группе)
The Intuition Orchestra history dates back to the first half of the 80s of past century. Back then colleagues from a musical primary school – Ryszard Wojciul, Bolek Błaszczyk and Jacek Alka began experimentations with improvised music. Very soon their musical meetings turned into intuitive gaming sessions, the results of which have been preserved in the archival album Legendarne Ząbki released two years ago, an extraordinary document of underground works of art and quite unusual given the time and circumstances in soviet Poland. Name of The Intuition Orchestra appeared only in 2008 though, when after a long break Ryszard, Bolek and Jacek began meeting together again to improvise. They were producing several recording sessions ever since. One of them involving Grażyna Auguścik and Zdzisław Piernik was released under the name of Fromm, recognized by the Polish Jazz blog as one of the top three Polish recordings in 2012.
In the booklet from the latest album To The Inside it says: „Despite our excursions into diverse aesthetic zones the spirit of our music has remained unchanged. We are not afraid of consonance, despite our way of playing being often rough and wild. The cooperative composing processes rely on listening to each other and feeling together, on a search for space and inspiration to each other. Our journey inwards has taken us to new territories, also owing to the participation of Marcin Olak who is truly a born jazzman. We have included a piece recorded with Jacek Malicki here – a legend of the Polish intuitive music, a member of the Grupa w Składzie ensemble – and a special bonus for the album’s finale, which is a recording we made in 1993. The latter is an improvised jazz ballad we played as a musical illustration for a graduation animated film (Academy of Fine Arts in Warsaw) made by Agnieszka Skolik. Join us for the journey to the …
(Ryszard Wojciul)
 
Состав
Ryszard Wojciul – soprano, altosaxophone, clarinet, EWI, voice
Bolesław Błaszczyk – keyboards, piano
Jacek Alka – drums
Marcin Olak – guitars, voice
Monika Szulińska – percussion
Maciej Szczyciński – doublebass
Jacek Malicki – guitar
Wojciech Szewko – bassguitar
По всем вопросам пишите личное сообщение пользователю M0p94ok.
03:13
314
Нет комментариев. Ваш будет первым!