Вы используете незарегистрированную версию компонента "Вкладки"!

Поиск

(Avant-Garde, Free Improvisation, Electroacoustic) [CD] Chris Tarry & Dylan Van Der Schyff - Sponge - 1998, FLAC (tracks+.cue), lossless

(Avant-Garde, Free Improvisation, Electroacoustic) [CD] Chris Tarry & Dylan Van Der Schyff - Sponge - 1998, FLAC (tracks+.cue), lossless
Треклист:
Chris Tarry & Dylan Van Der Schyff / Sponge
Жанр: Avant-Garde, Free Improvisation, Electroacoustic
Носитель: CD
Страна-производитель диска: Canada
Год издания: 1998
Издатель (лейбл): Spool
Номер по каталогу: SPL101 / Line 1
Страна: Canada
Аудиокодек: FLAC (*.flac)
Тип рипа: tracks+.cue
Битрейт аудио: lossless
Продолжительность: 23:50
Источник (релизер): свой фирменный диск
Наличие сканов в содержимом раздачи:
Треклист:
1. Snakes And Sand (Tension 1)
2. Tribes (Tension 2)
3. Police Tools (Tension 3)
4. Sponge (Tension 4)
5. Water Song (Release 1)
 
Лог создания рипа
Exact Audio Copy V1.0 beta 3 from 29. August 2011
EAC extraction logfile from 1. January 2014, 19:51
Chris Tarry & Dylan Van Der Schyff / Sponge
Used drive : PIONEER DVD-RW DVR-115D Adapter: 0 ID: 0
Read mode : Secure
Utilize accurate stream : Yes
Defeat audio cache : Yes
Make use of C2 pointers : No
Read offset correction : 48
Overread into Lead-In and Lead-Out : No
Fill up missing offset samples with silence : Yes
Delete leading and trailing silent blocks : No
Null samples used in CRC calculations : Yes
Used interface : Installed external ASPI interface
Gap handling : Appended to previous track
Used output format : User Defined Encoder
Selected bitrate : 896 kBit/s
Quality : High
Add ID3 tag : No
Command line compressor : C:\Program Files\Exact Audio Copy\FLAC\FLAC.EXE
Additional command line options : -6 -V -T "ARTIST=%artist%" -T "TITLE=%title%" -T "ALBUM=%albumtitle%" -T "DATE=%year%" -T "TRACKNUMBER=%tracknr%" -T "GENRE=%genre%" -T "COMMENT=%comment%" -T "BAND=%albuminterpret%" -T "COMPOSER=%composer%" %haslyrics%--tag-from-file=LYRICS="%lyricsfile%"%haslyrics% -T "DISCNUMBER=%cdnumber%" -T "TOTALDISCS=%totalcds%" -T "TOTALTRACKS=%numtracks%" %hascover%--picture="%coverfile%"%hascover% %source% -o %dest%
TOC of the extracted CD
Track | Start | Length | Start sector | End sector
---------------------------------------------------------
1 | 0:00.00 | 9:32.45 | 0 | 42944
2 | 9:32.45 | 4:27.30 | 42945 | 62999
3 | 14:00.00 | 0:48.13 | 63000 | 66612
4 | 14:48.13 | 4:52.11 | 66613 | 88523
5 | 19:40.24 | 4:10.06 | 88524 | 107279
Track 1
Filename D:\zzz\01 - Snakes And Sand (Tension 1).wav
Pre-gap length 0:00:02.00
Peak level 94.4 %
Extraction speed 4.9 X
Track quality 100.0 %
Test CRC F728E5D3
Copy CRC F728E5D3
Track not present in AccurateRip database
Copy OK
Track 2
Filename D:\zzz\02 - Tribes (Tension 2).wav
Pre-gap length 0:00:01.63
Peak level 94.4 %
Extraction speed 5.3 X
Track quality 100.0 %
Test CRC CBCAADFC
Copy CRC CBCAADFC
Track not present in AccurateRip database
Copy OK
Track 3
Filename D:\zzz\03 - Police Tools (Tension 3).wav
Pre-gap length 0:00:02.61
Peak level 92.7 %
Extraction speed 3.5 X
Track quality 100.0 %
Test CRC CD7EE478
Copy CRC CD7EE478
Track not present in AccurateRip database
Copy OK
Track 4
Filename D:\zzz\04 - Sponge (Tension 4).wav
Pre-gap length 0:00:01.63
Peak level 45.0 %
Extraction speed 5.3 X
Track quality 99.9 %
Test CRC 66C20415
Copy CRC 66C20415
Track not present in AccurateRip database
Copy OK
Track 5
Filename D:\zzz\05 - Water Song (Release 1).wav
Pre-gap length 0:00:04.62
Peak level 27.6 %
Extraction speed 6.1 X
Track quality 100.0 %
Test CRC CD3B0361
Copy CRC CD3B0361
Track not present in AccurateRip database
Copy OK
None of the tracks are present in the AccurateRip database
No errors occurred
End of status report
==== Log checksum 1DF0F14248A9A303A1D6BD7491865C34E29DE7F377383281D7448F3E2DC249F1 ====
 
Содержание индексной карты (.CUE)
REM GENRE "Free Improvisation"
REM DATE 1998
REM DISCID 3D059605
REM COMMENT "ExactAudioCopy v1.0b3"
PERFORMER "Chris Tarry & Dylan Van Der Schyff"
TITLE "Sponge"
FILE "01 - Snakes And Sand (Tension 1).wav" WAVE
TRACK 01 AUDIO
TITLE "Snakes And Sand (Tension 1)"
PERFORMER "Chris Tarry & Dylan Van Der Schyff"
FLAGS DCP
INDEX 01 00:00:00
TRACK 02 AUDIO
TITLE "Tribes (Tension 2)"
PERFORMER "Chris Tarry & Dylan Van Der Schyff"
FLAGS DCP
INDEX 00 09:30:57
FILE "02 - Tribes (Tension 2).wav" WAVE
INDEX 01 00:00:00
TRACK 03 AUDIO
TITLE "Police Tools (Tension 3)"
PERFORMER "Chris Tarry & Dylan Van Der Schyff"
FLAGS DCP
INDEX 00 04:24:44
FILE "03 - Police Tools (Tension 3).wav" WAVE
INDEX 01 00:00:00
TRACK 04 AUDIO
TITLE "Sponge (Tension 4)"
PERFORMER "Chris Tarry & Dylan Van Der Schyff"
FLAGS DCP
INDEX 00 00:46:25
FILE "04 - Sponge (Tension 4).wav" WAVE
INDEX 01 00:00:00
TRACK 05 AUDIO
TITLE "Water Song (Release 1)"
PERFORMER "Chris Tarry & Dylan Van Der Schyff"
FLAGS DCP
INDEX 00 04:47:24
FILE "05 - Water Song (Release 1).wav" WAVE
INDEX 01 00:00:00
 
Лог проверки качества
d:\>d:\aucdtect -d/-m0 d:\zzz\*.wav
auCDtect: CD records authenticity detector, version 0.8.2
Copyright (c) 2004 Oleg Berngardt. All rights reserved.
Copyright (c) 2004 Alexander Djourik. All rights reserved.
------------------------------------------------------------
Processing file: [01. Snakes And Sand (Tension 1).wav]
------------------------------------------------------------
This track looks like CDDA with probability 100%
------------------------------------------------------------
Processing file: [02. Tribes (Tension 2).wav]
------------------------------------------------------------
This track looks like CDDA with probability 100%
------------------------------------------------------------
Processing file: [03. Police Tools (Tension 3).wav]
------------------------------------------------------------
This track looks like CDDA with probability 100%
------------------------------------------------------------
Processing file: [04. Sponge (Tension 4).wav]
------------------------------------------------------------
This track looks like CDDA with probability 100%
------------------------------------------------------------
Processing file: [05. Water Song (Release 1).wav]
------------------------------------------------------------
This track looks like CDDA with probability 87%
------------------------------------------------------------
Final Conclusion:
------------------------------------------------------------
These tracks looks like CDDA with probability 100%
Доп. информация:
 
Album Info & AMG Review
Recorded and mixed April 1997 by Shawn Pierce for Maximum Music
Mastered by George Leger for Utopia Parkway
Digital editing by Shawn Pierce and Kerry Galloway
Produced by Chris Tarry and Dylan Van Der Schyff
Here's a wooly one: electric bassist Chris Tarry hunkering down with drummer Dylan van der Schlyf in Canada and getting down to the business of spontaneous improvisation. For starters, the duo employ a number of effects, van der Sclyff an enormous range of samples, musical and non, and Tarry using an old tape machine. Four of the five pieces here have the word "tension" written in parentheses at the end of the title, with the fifth tracks getting the parenthetical moniker "release." The tracks range from the near ambient "Snakes and Sand" and "Sponge," to the beat conscious "Tribes," with reggae rhythms juxtaposed against rock and jazz ones, to the skronky "Police Tools," which is truly one of the most paranoiac tunes ever recorded. The host of sounds and textures overlap to create a darkly impersonal view of the world through the first four tracks, which lulls us into submission before "Water Song," a wonderfully anti-climactic bit of silvery lyricism. This is far from the free blowing anything goes date one would expect from either of these two, but it is no less powerful for all its restraint.
 
Состав
Chris Tarry: electric bass and tape machine
Dylan Van Der Schyff: drums and samples
По всем вопросам пишите личное сообщение пользователю M0p94ok.
22:13
182
Нет комментариев. Ваш будет первым!