Вы используете незарегистрированную версию компонента "Вкладки"!

Поиск

(Free Jazz, Contemporary Jazz) [CD] Tony Wilson Sextet (feat. Dylan Van Der Schyff, Francois Houle, Peggy Lee) - Lowest Note - 2000, FLAC (tracks+.cue), lossless

(Free Jazz, Contemporary Jazz) [CD] Tony Wilson Sextet (feat. Dylan Van Der Schyff, Francois Houle, Peggy Lee) - Lowest Note - 2000, FLAC (tracks+.cue), lossless
Треклист:
Tony Wilson Sextet / Lowest Note
Жанр: Free Jazz, Contemporary Jazz
Носитель: CD
Страна-производитель диска: Canada
Год издания: 2000
Издатель (лейбл): Spool
Номер по каталогу: SPL 112 / Line 12
Страна: Canada
Аудиокодек: FLAC (*.flac)
Тип рипа: tracks+.cue
Битрейт аудио: lossless
Продолжительность: 64:45
Источник (релизер): свой фирменный диск
Наличие сканов в содержимом раздачи:
Треклист:
1. #20 5:25
2. Lowest Note 4:08
3. The Gong Song 4:20
4. Untitled #1 9:44
5. New York City Blue 6:02
6. Col. Rowan's March 1:30
7. For Fela Kuti 8:25
8. For Freddie Stone 5:40
9. For Albert 6:20
10. For Chet Baker 3:59
11. Can't Take A Joke 6:50
12. Tears Inside 1:45
 
Лог создания рипа
Exact Audio Copy V1.0 beta 3 from 29. August 2011
EAC extraction logfile from 2. January 2014, 0:37
Tony Wilson Sextet / Lowest Note
Used drive : PIONEER DVD-RW DVR-115D Adapter: 0 ID: 0
Read mode : Secure
Utilize accurate stream : Yes
Defeat audio cache : Yes
Make use of C2 pointers : No
Read offset correction : 48
Overread into Lead-In and Lead-Out : No
Fill up missing offset samples with silence : Yes
Delete leading and trailing silent blocks : No
Null samples used in CRC calculations : Yes
Used interface : Installed external ASPI interface
Gap handling : Appended to previous track
Used output format : User Defined Encoder
Selected bitrate : 896 kBit/s
Quality : High
Add ID3 tag : No
Command line compressor : C:\Program Files\Exact Audio Copy\FLAC\FLAC.EXE
Additional command line options : -6 -V -T "ARTIST=%artist%" -T "TITLE=%title%" -T "ALBUM=%albumtitle%" -T "DATE=%year%" -T "TRACKNUMBER=%tracknr%" -T "GENRE=%genre%" -T "COMMENT=%comment%" -T "BAND=%albuminterpret%" -T "COMPOSER=%composer%" %haslyrics%--tag-from-file=LYRICS="%lyricsfile%"%haslyrics% -T "DISCNUMBER=%cdnumber%" -T "TOTALDISCS=%totalcds%" -T "TOTALTRACKS=%numtracks%" %hascover%--picture="%coverfile%"%hascover% %source% -o %dest%
TOC of the extracted CD
Track | Start | Length | Start sector | End sector
---------------------------------------------------------
1 | 0:00.00 | 5:26.62 | 0 | 24511
2 | 5:26.62 | 4:10.08 | 24512 | 43269
3 | 9:36.70 | 4:23.12 | 43270 | 63006
4 | 14:00.07 | 9:47.50 | 63007 | 107081
5 | 23:47.57 | 6:04.73 | 107082 | 134454
6 | 29:52.55 | 1:33.45 | 134455 | 141474
7 | 31:26.25 | 8:29.50 | 141475 | 179699
8 | 39:56.00 | 5:41.65 | 179700 | 205339
9 | 45:37.65 | 6:23.57 | 205340 | 234121
10 | 52:01.47 | 4:00.38 | 234122 | 252159
11 | 56:02.10 | 6:52.12 | 252160 | 283071
12 | 62:54.22 | 1:50.53 | 283072 | 291374
Track 1
Filename D:\zzz\01 - #20.wav
Pre-gap length 0:00:02.00
Peak level 89.1 %
Extraction speed 4.6 X
Track quality 100.0 %
Test CRC 364AE364
Copy CRC 364AE364
Accurately ripped (confidence 1) [D2E511AE] (AR v1)
Copy OK
Track 2
Filename D:\zzz\02 - Lowest Note.wav
Pre-gap length 0:00:00.72
Peak level 89.1 %
Extraction speed 5.0 X
Track quality 100.0 %
Test CRC FAFD65B2
Copy CRC FAFD65B2
Accurately ripped (confidence 1) [21F65936] (AR v1)
Copy OK
Track 3
Filename D:\zzz\03 - The Gong Song.wav
Peak level 86.0 %
Extraction speed 5.4 X
Track quality 100.0 %
Test CRC 3490A154
Copy CRC 3490A154
Accurately ripped (confidence 1) [FD6A14FA] (AR v1)
Copy OK
Track 4
Filename D:\zzz\04 - Untitled #1.wav
Pre-gap length 0:00:01.72
Peak level 89.1 %
Extraction speed 6.4 X
Track quality 100.0 %
Test CRC CF22C99F
Copy CRC CF22C99F
Accurately ripped (confidence 1) [FCBC91F7] (AR v1)
Copy OK
Track 5
Filename D:\zzz\05 - New York City Blue.wav
Pre-gap length 0:00:02.72
Peak level 89.1 %
Extraction speed 6.8 X
Track quality 100.0 %
Test CRC 282A02FD
Copy CRC 282A02FD
Accurately ripped (confidence 1) [27F6AABB] (AR v1)
Copy OK
Track 6
Filename D:\zzz\06 - Col. Rowan's March.wav
Pre-gap length 0:00:01.73
Peak level 89.1 %
Extraction speed 4.4 X
Track quality 99.8 %
Test CRC 0D413098
Copy CRC 0D413098
Accurately ripped (confidence 1) [C27A38B5] (AR v1)
Copy OK
Track 7
Filename D:\zzz\07 - For Fela Kuti.wav
Pre-gap length 0:00:00.73
Peak level 89.1 %
Extraction speed 7.6 X
Track quality 100.0 %
Test CRC 1A4782B3
Copy CRC 1A4782B3
Accurately ripped (confidence 1) [96DF7605] (AR v1)
Copy OK
Track 8
Filename D:\zzz\08 - For Freddie Stone.wav
Pre-gap length 0:00:02.73
Peak level 89.1 %
Extraction speed 7.7 X
Track quality 100.0 %
Test CRC 70CE180E
Copy CRC 70CE180E
Accurately ripped (confidence 1) [B7783A0D] (AR v1)
Copy OK
Track 9
Filename D:\zzz\09 - For Albert.wav
Peak level 79.4 %
Extraction speed 7.6 X
Track quality 99.9 %
Test CRC E0986AF7
Copy CRC E0986AF7
Accurately ripped (confidence 1) [8CB25E4C] (AR v1)
Copy OK
Track 10
Filename D:\zzz\10 - For Chet Baker.wav
Pre-gap length 0:00:01.72
Peak level 89.1 %
Extraction speed 8.0 X
Track quality 100.0 %
Test CRC 6EEC3FCB
Copy CRC 6EEC3FCB
Accurately ripped (confidence 1) [B2833810] (AR v1)
Copy OK
Track 11
Filename D:\zzz\11 - Can't Take A Joke.wav
Pre-gap length 0:00:00.73
Peak level 89.1 %
Extraction speed 8.8 X
Track quality 100.0 %
Test CRC 132C2890
Copy CRC 132C2890
Accurately ripped (confidence 1) [7C7F6D3D] (AR v1)
Copy OK
Track 12
Filename D:\zzz\12 - Tears Inside.wav
Pre-gap length 0:00:01.72
Peak level 68.7 %
Extraction speed 7.4 X
Track quality 100.0 %
Test CRC 889F1C49
Copy CRC 889F1C49
Accurately ripped (confidence 1) [1870AA0C] (AR v1)
Copy OK
All tracks accurately ripped
No errors occurred
End of status report
==== Log checksum 81F1A0A62DF6E027DE1C2CF817F61CEAFA75D8EB4DD9EFCF404B059EE153BD74 ====
 
Содержание индексной карты (.CUE)
REM GENRE Jazz
REM DATE 2000
REM DISCID CA0F2D0C
REM COMMENT "ExactAudioCopy v1.0b3"
PERFORMER "Tony Wilson Sextet"
TITLE "Lowest Note"
FILE "01 - #20.wav" WAVE
TRACK 01 AUDIO
TITLE "#20"
PERFORMER "Tony Wilson Sextet"
INDEX 01 00:00:00
TRACK 02 AUDIO
TITLE "Lowest Note"
PERFORMER "Tony Wilson Sextet"
INDEX 00 05:25:65
FILE "02 - Lowest Note.wav" WAVE
INDEX 01 00:00:00
FILE "03 - The Gong Song.wav" WAVE
TRACK 03 AUDIO
TITLE "The Gong Song"
PERFORMER "Tony Wilson Sextet"
INDEX 01 00:00:00
TRACK 04 AUDIO
TITLE "Untitled #1"
PERFORMER "Tony Wilson Sextet"
INDEX 00 04:21:15
FILE "04 - Untitled #1.wav" WAVE
INDEX 01 00:00:00
TRACK 05 AUDIO
TITLE "New York City Blue"
PERFORMER "Tony Wilson Sextet"
INDEX 00 09:44:53
FILE "05 - New York City Blue.wav" WAVE
INDEX 01 00:00:00
TRACK 06 AUDIO
TITLE "Col. Rowan's March"
PERFORMER "Tony Wilson Sextet"
INDEX 00 06:03:00
FILE "06 - Col. Rowan's March.wav" WAVE
INDEX 01 00:00:00
TRACK 07 AUDIO
TITLE "For Fela Kuti"
PERFORMER "Tony Wilson Sextet"
INDEX 00 01:32:47
FILE "07 - For Fela Kuti.wav" WAVE
INDEX 01 00:00:00
TRACK 08 AUDIO
TITLE "For Freddie Stone"
PERFORMER "Tony Wilson Sextet"
INDEX 00 08:26:52
FILE "08 - For Freddie Stone.wav" WAVE
INDEX 01 00:00:00
FILE "09 - For Albert.wav" WAVE
TRACK 09 AUDIO
TITLE "For Albert"
PERFORMER "Tony Wilson Sextet"
INDEX 01 00:00:00
TRACK 10 AUDIO
TITLE "For Chet Baker"
PERFORMER "Tony Wilson Sextet"
INDEX 00 06:21:60
FILE "10 - For Chet Baker.wav" WAVE
INDEX 01 00:00:00
TRACK 11 AUDIO
TITLE "Can't Take A Joke"
PERFORMER "Tony Wilson Sextet"
INDEX 00 03:59:40
FILE "11 - Can't Take A Joke.wav" WAVE
INDEX 01 00:00:00
TRACK 12 AUDIO
TITLE "Tears Inside"
PERFORMER "Tony Wilson Sextet"
INDEX 00 06:50:15
FILE "12 - Tears Inside.wav" WAVE
INDEX 01 00:00:00
 
Лог проверки качества
d:\>d:\aucdtect -d/-m0 d:\zzz\*.wav
auCDtect: CD records authenticity detector, version 0.8.2
Copyright (c) 2004 Oleg Berngardt. All rights reserved.
Copyright (c) 2004 Alexander Djourik. All rights reserved.
------------------------------------------------------------
Processing file: [01. #20.wav]
------------------------------------------------------------
This track looks like CDDA with probability 100%
------------------------------------------------------------
Processing file: [02. Lowest Note.wav]
------------------------------------------------------------
This track looks like CDDA with probability 100%
------------------------------------------------------------
Processing file: [03. The Gong Song.wav]
------------------------------------------------------------
This track looks like CDDA with probability 100%
------------------------------------------------------------
Processing file: [04. Untitled #1.wav]
------------------------------------------------------------
This track looks like CDDA with probability 100%
------------------------------------------------------------
Processing file: [05. New York City Blue.wav]
------------------------------------------------------------
This track looks like CDDA with probability 100%
------------------------------------------------------------
Processing file: [06. Col. Rowan's March.wav]
------------------------------------------------------------
This track looks like CDDA with probability 100%
------------------------------------------------------------
Processing file: [07. For Fela Kuti.wav]
------------------------------------------------------------
This track looks like CDDA with probability 100%
------------------------------------------------------------
Processing file: [08. For Freddie Stone.wav]
------------------------------------------------------------
This track looks like CDDA with probability 100%
------------------------------------------------------------
Processing file: [09. For Albert.wav]
------------------------------------------------------------
This track looks like CDDA with probability 100%
------------------------------------------------------------
Processing file: [10. For Chet Baker.wav]
------------------------------------------------------------
This track looks like CDDA with probability 100%
------------------------------------------------------------
Processing file: [11. Can't Take A Joke.wav]
------------------------------------------------------------
This track looks like CDDA with probability 100%
------------------------------------------------------------
Processing file: [12. Tears Inside.wav]
------------------------------------------------------------
This track looks like CDDA with probability 100%
------------------------------------------------------------
Final Conclusion:
------------------------------------------------------------
These tracks looks like CDDA with probability 100%
Доп. информация:
 
Album Info & AMG Review
Recorded and mixed May 2000 by Shawn Pierce for Maximum Music Ltd. at Blue Wave Studios Vancouver British Columbia, Canada
Assistant engineer Matt Marteinsson, except #4, recorded & mixed by Marc L'Esperance at Say Watt Studio, Vancouver, British Columbia, Canada
Photography by Amber Harker
CD layout Chris Tarry
Lowest Note is Vancouver guitarist Tony Wilson's first CD as a leader. It fits the new jazz Vancouver sound developed in the 1990s by people like François Houle, Peggy Lee, and Dylan van der Schyff, all of whom appear on this CD. Actually, this sextet (plus Houle on track four) is pretty close to the Peggy Lee Ensemble (eponymous CD released in 2000 on the same Spool label). Wilson writes delicate pieces involving contrapuntal figures, jazz rhythm patterns, and rock-derived riffs. The music is mostly laid-back and atmospheric (think of Bill Frisell or Ben Monder). High-speed exceptions like "Lowest Note" do exist, making sure the listener doesn't settle in too comfortably. The album reaches a peak on the ten-minute "Untitled #4," a complex piece recalling Frank Zappa's Grand Wazoo phase where Wilson gets a guitar spotlight -- a rare event on this CD, since he usually limits his playing to discreet picking. Kevin Elaschuk (trumpet) and Dave Say (tenor sax) front the band's sound. Another highlight resides in the lyrical "Can't Take a Joke." Wilson's compositions are less repetitive than Lee and also tighter, but he does not take the Vancouver sound into new territories. All of which makes Lowest Note a strong but not surprising debut.
 
Состав
Dylan Van Der Schyff: drums
Tony Wilson: guitar
Paul Blaney: bass
Peggy Lee: cello
Dave Say: tenor sax
Kevin Elaschuk: trumpet
Francois Houle: clarinet (4)
Any questions -> support@pro-jazz.com. По всем вопросам пишите -> support@pro-jazz.com
22:13
224
Нет комментариев. Ваш будет первым!