Вы используете незарегистрированную версию компонента "Вкладки"!

Поиск

(Free Jazz, Avant-Garde Jazz) [CD] Glenn Spearman's G-Force - Let It Go - 1997, FLAC (tracks+.cue), lossless

(Free Jazz, Avant-Garde Jazz) [CD] Glenn Spearman's G-Force - Let It Go - 1997, FLAC (tracks+.cue), lossless
Треклист:
Glenn Spearman's G-Force / Let It Go
Жанр: Free Jazz, Avant-Garde Jazz
Носитель: CD
Страна-производитель диска: Canada
Год издания: 1997
Издатель (лейбл): Red Toucan
Номер по каталогу: RT 9308-2
Страна: US
Аудиокодек: FLAC (*.flac)
Тип рипа: tracks+.cue
Битрейт аудио: lossless
Продолжительность: 63:43
Источник (релизер): свой фирменный диск
Наличие сканов в содержимом раздачи:
Треклист:
1. Geronimo's Song 14:13
2. July '87 7:40
3. Go Left Out Of Shantiville 6:14
4. Short Peace 4:49
5. Almost Shaft 10:55
6. Mixed Bag 14:59
7. Jerry 4:39
 
Лог создания рипа
Exact Audio Copy V1.0 beta 3 from 29. August 2011
EAC extraction logfile from 1. January 2014, 13:51
Glenn Spearman's G-Force / Let It Go
Used drive : PIONEER DVD-RW DVR-115D Adapter: 0 ID: 0
Read mode : Secure
Utilize accurate stream : Yes
Defeat audio cache : Yes
Make use of C2 pointers : No
Read offset correction : 48
Overread into Lead-In and Lead-Out : No
Fill up missing offset samples with silence : Yes
Delete leading and trailing silent blocks : No
Null samples used in CRC calculations : Yes
Used interface : Installed external ASPI interface
Gap handling : Appended to previous track
Used output format : User Defined Encoder
Selected bitrate : 896 kBit/s
Quality : High
Add ID3 tag : No
Command line compressor : C:\Program Files\Exact Audio Copy\FLAC\FLAC.EXE
Additional command line options : -6 -V -T "ARTIST=%artist%" -T "TITLE=%title%" -T "ALBUM=%albumtitle%" -T "DATE=%year%" -T "TRACKNUMBER=%tracknr%" -T "GENRE=%genre%" -T "COMMENT=%comment%" -T "BAND=%albuminterpret%" -T "COMPOSER=%composer%" %haslyrics%--tag-from-file=LYRICS="%lyricsfile%"%haslyrics% -T "DISCNUMBER=%cdnumber%" -T "TOTALDISCS=%totalcds%" -T "TOTALTRACKS=%numtracks%" %hascover%--picture="%coverfile%"%hascover% %source% -o %dest%
TOC of the extracted CD
Track | Start | Length | Start sector | End sector
---------------------------------------------------------
1 | 0:00.00 | 14:14.17 | 0 | 64066
2 | 14:14.17 | 7:40.45 | 64067 | 98611
3 | 21:54.62 | 6:15.08 | 98612 | 126744
4 | 28:09.70 | 4:52.22 | 126745 | 148666
5 | 33:02.17 | 11:00.05 | 148667 | 198171
6 | 44:02.22 | 15:04.43 | 198172 | 266014
7 | 59:06.65 | 4:36.47 | 266015 | 286761
Track 1
Filename D:\zzz\01 - Geronimo's Song.wav
Pre-gap length 0:00:02.00
Peak level 99.9 %
Extraction speed 5.1 X
Track quality 99.9 %
Test CRC D85691B0
Copy CRC D85691B0
Accurately ripped (confidence 1) [154F19C7] (AR v2)
Copy OK
Track 2
Filename D:\zzz\02 - July '87.wav
Pre-gap length 0:00:03.50
Peak level 92.8 %
Extraction speed 6.1 X
Track quality 100.0 %
Test CRC 6155E14C
Copy CRC 6155E14C
Accurately ripped (confidence 1) [100F1FC9] (AR v2)
Copy OK
Track 3
Filename D:\zzz\03 - Go Left Out Of Shantiville.wav
Pre-gap length 0:00:03.57
Peak level 100.0 %
Extraction speed 6.6 X
Track quality 100.0 %
Test CRC D87A7ADC
Copy CRC D87A7ADC
Accurately ripped (confidence 1) [DA13A8AC] (AR v2)
Copy OK
Track 4
Filename D:\zzz\04 - Short Peace.wav
Pre-gap length 0:00:02.68
Peak level 52.9 %
Extraction speed 6.8 X
Track quality 100.0 %
Test CRC A974843B
Copy CRC A974843B
Accurately ripped (confidence 1) [509A999B] (AR v2)
Copy OK
Track 5
Filename D:\zzz\05 - Almost Shaft.wav
Pre-gap length 0:00:04.35
Peak level 100.0 %
Extraction speed 7.7 X
Track quality 100.0 %
Test CRC 790E33FF
Copy CRC 790E33FF
Accurately ripped (confidence 1) [72C7A1A2] (AR v2)
Copy OK
Track 6
Filename D:\zzz\06 - Mixed Bag.wav
Pre-gap length 0:00:04.50
Peak level 99.9 %
Extraction speed 8.6 X
Track quality 100.0 %
Test CRC 58B51D5C
Copy CRC 58B51D5C
Accurately ripped (confidence 1) [8841DFC6] (AR v2)
Copy OK
Track 7
Filename D:\zzz\07 - Jerry.wav
Pre-gap length 0:00:04.45
Peak level 99.9 %
Extraction speed 8.4 X
Track quality 100.0 %
Test CRC A9CB33A1
Copy CRC A9CB33A1
Accurately ripped (confidence 1) [FFFB04C4] (AR v2)
Copy OK
All tracks accurately ripped
No errors occurred
End of status report
==== Log checksum 5C2C6B7D2C04C0CCAC9FDA7102D06107D3642E3B24F8AAF7CB79C228400B1CE0 ====
 
Содержание индексной карты (.CUE)
REM GENRE "Free Jazz"
REM DATE 1997
REM DISCID 6B0EEF07
REM COMMENT "ExactAudioCopy v1.0b3"
PERFORMER "Glenn Spearman's G-Force"
TITLE "Let It Go"
FILE "01 - Geronimo's Song.wav" WAVE
TRACK 01 AUDIO
TITLE "Geronimo's Song"
PERFORMER "Glenn Spearman's G-Force"
INDEX 01 00:00:00
TRACK 02 AUDIO
TITLE "July '87"
PERFORMER "Glenn Spearman's G-Force"
INDEX 00 14:10:42
FILE "02 - July '87.wav" WAVE
INDEX 01 00:00:00
TRACK 03 AUDIO
TITLE "Go Left Out Of Shantiville"
PERFORMER "Glenn Spearman's G-Force"
INDEX 00 07:36:63
FILE "03 - Go Left Out Of Shantiville.wav" WAVE
INDEX 01 00:00:00
TRACK 04 AUDIO
TITLE "Short Peace"
PERFORMER "Glenn Spearman's G-Force"
INDEX 00 06:12:15
FILE "04 - Short Peace.wav" WAVE
INDEX 01 00:00:00
TRACK 05 AUDIO
TITLE "Almost Shaft"
PERFORMER "Glenn Spearman's G-Force"
INDEX 00 04:47:62
FILE "05 - Almost Shaft.wav" WAVE
INDEX 01 00:00:00
TRACK 06 AUDIO
TITLE "Mixed Bag"
PERFORMER "Glenn Spearman's G-Force"
INDEX 00 10:55:30
FILE "06 - Mixed Bag.wav" WAVE
INDEX 01 00:00:00
TRACK 07 AUDIO
TITLE "Jerry"
PERFORMER "Glenn Spearman's G-Force"
INDEX 00 14:59:73
FILE "07 - Jerry.wav" WAVE
INDEX 01 00:00:00
 
Лог проверки качества
d:\>d:\aucdtect -d/-m0 d:\zzz\*.wav
auCDtect: CD records authenticity detector, version 0.8.2
Copyright (c) 2004 Oleg Berngardt. All rights reserved.
Copyright (c) 2004 Alexander Djourik. All rights reserved.
------------------------------------------------------------
Processing file: [01. Geronimo's Song.wav]
------------------------------------------------------------
This track looks like CDDA with probability 100%
------------------------------------------------------------
Processing file: [02. July '87.wav]
------------------------------------------------------------
This track looks like CDDA with probability 100%
------------------------------------------------------------
Processing file: [03. Go Left Out Of Shantiville.wav]
------------------------------------------------------------
This track looks like CDDA with probability 100%
------------------------------------------------------------
Processing file: [04. Short Peace.wav]
------------------------------------------------------------
This track looks like CDDA with probability 100%
------------------------------------------------------------
Processing file: [05. Almost Shaft.wav]
------------------------------------------------------------
This track looks like CDDA with probability 99%
------------------------------------------------------------
Processing file: [06. Mixed Bag.wav]
------------------------------------------------------------
This track looks like CDDA with probability 100%
------------------------------------------------------------
Processing file: [07. Jerry.wav]
------------------------------------------------------------
This track looks like CDDA with probability 100%
------------------------------------------------------------
Final Conclusion:
------------------------------------------------------------
These tracks looks like CDDA with probability 100%
Доп. информация:
 
Album Info
All compositions by Glenn Spearman except 7. by Frank Wright
Recorded at Mobius Music San Francisco, May 1994
Engineer: Oliver Decicco
Produced by Don Paul
Mastered by Myles Boisen and Don Paul at Garuda Studio
Photos by Steve Wilson at San Francisco's Radio Valencia
Artwork by Rejean Gilbert
Executive producers: Guy Chouinard, Michel Passaretti
 
Состав
Glenn Spearman: tenor saxophone
Lisle Ellis: acoustic bass
Donald Robinson: trap drums
James Routhier: electric guitar
Any questions -> support@pro-jazz.com. По всем вопросам пишите -> support@pro-jazz.com
22:12
287
Нет комментариев. Ваш будет первым!